Action

Shooter 2007 1080p Bluray x264 Codres_NEW

  • Download 5x Faster
  • Download torrent
  • Direct Download
  • Rate this torrent +  |  -
Shooter 2007 1080p Bluray x264 Codres_NEW

Anonymous and Free Direct Download


Torrent info

Name:Shooter 2007 1080p Bluray x264 Codres_NEW

Total Size: 4.48 GB

Magnet: Magnet Link

Seeds: 0

Leechers: 0

Stream: Watch Online @ Movie4u

Last Updated: 2011-06-02 14:34:03 (Update Now)

Torrent added: 2009-08-22 16:51:04



VPN For Torrents

Torrent Files List


Shooter.2007.1080p.Bluray.x264.Codres.srt (Size: 4.48 GB) (Files: 5)

 Shooter.2007.1080p.Bluray.x264.Codres.srt

109.67 KB

 Shooter.2007.1080p.Bluray.x264.Codres.SAMPLE.mkv

50.28 MB

 Shooter.2007.1080p.Bluray.x264.Codres.mkv

4.37 GB

 Shooter.2007.1080p.Bluray.x264.Codres.EN.srt

107.16 KB

 Shooter.2007.1080p.Bluray.x264.Codres.COMMENTARY.mp3

57.54 MB
 

Announce URL:

Torrent description

THERE WAS SOME PROBLEM WIH THE PREVIUOS TORRENT. I DON'T KNOW WHY. TRY TO RESUME

It's my personal rip. If you don't like it there are other version available...

IMDB...: http://www.imdb.com/title/tt0822854/

Release info

ormat : Matroska
File size : 4.37 GiB
Duration : 2h 5mn
Overall bit rate : 4 981 Kbps
Encoded date : UTC 2009-05-31 05:21:24
Writing application : mkvmerge v2.8.0 ('The Tree') built on May 14 2009 09:28:39
Writing library : libebml v0.7.7 + libmatroska v0.8.1

Video
ID : 1
Format : AVC
Format/Info : Advanced Video Codec
Format profile : [email protected]
Format settings, CABAC : Yes
Format settings, ReFrames : 5 frames
Muxing mode : Container [email protected]
Codec ID : V_MPEG4/ISO/AVC
Duration : 2h 5mn
Bit rate : 4 242 Kbps
Nominal bit rate : 4 340 Kbps
Width : 1 920 pixels
Height : 800 pixels
Display aspect ratio : 2.400
Frame rate : 23.976 fps
Resolution : 24 bits
Colorimetry : 4:2:0
Scan type : Progressive
Bits/(Pixel*Frame) : 0.115
Stream size : 3.72 GiB (85%)
Writing library : x264 core 67 r1162M f7bfcfa
Encoding settings : cabac=1 / ref=5 / deblock=1:0:0 / analyse=0x3:0x113 / me=umh / subme=9 / psy_rd=1.0:0.0 / mixed_ref=1 / me_range=24 / chroma_me=1 / trellis=2 / 8x8dct=1 / cqm=0 / deadzone=21,11 / chroma_qp_offset=-2 / threads=3 / nr=0 / decimate=1 / mbaff=0 / bframes=3 / b_pyramid=1 / b_adapt=2 / b_bias=0 / direct=3 / wpredb=1 / keyint=250 / keyint_min=25 / scenecut=40 / rc=2pass / bitrate=4340 / ratetol=1.0 / qcomp=0.60 / qpmin=10 / qpmax=51 / qpstep=4 / cplxblur=20.0 / qblur=0.5 / ip_ratio=1.40 / pb_ratio=1.30 / aq=1:1.00
Language : English

Audio
ID : 2
Format : AC-3
Format/Info : Audio Coding 3
Codec ID : A_AC3
Duration : 2h 5mn
Bit rate mode : Constant
Bit rate : 640 Kbps
Channel(s) : 6 channels
Channel positions : Front: L C R, Surround: L R, LFE
Sampling rate : 48.0 KHz
Stream size : 575 MiB (13%)
Language : English

related torrents

Torrent name

health leech seeds Size
 


comments (0)

Main Menu