Action

The Dark Knight Prologue 2008 720p Blu rayH 264 AAC ~SaaS~

  • Download 5x Faster
  • Download torrent
  • Direct Download
  • Rate this torrent +  |  -
The Dark Knight Prologue 2008 720p Blu rayH 264 AAC ~SaaS~

Free and Direct Download with Usenet 300GB+ free


Torrent info

Name:The Dark Knight Prologue 2008 720p Blu rayH 264 AAC ~SaaS~

Total Size: 124.26 MB

Magnet: Magnet Link

Seeds: 0

Leechers: 0

Stream: Watch Online @ Movie4u

Last Updated: 2013-09-18 12:49:16 (Update Now)

Torrent added: 2008-07-20 03:34:58




Torrent Files List


TDK - 01.jpg (Size: 124.26 MB) (Files: 7)

 TDK - 01.jpg

42.80 KB

 TDK - 02.jpg

42.94 KB

 TDK - 03.jpg

43.36 KB

 TDK - 04.jpg

45.46 KB

 The Dark Knight Prologue [2008-720p-Blu-ray][H.264-AAC].mp4

124.08 MB

 The Dark Knight Prologue [2008-720p-Blu-ray][H.264-AAC].mp4.txt

1.67 KB

 Torrent downloaded from Demonoid.com.txt

0.05 KB
 

Announce URL:

Torrent description

The Dark Knight Prologue

Format : MPEG-4
File size : 124 MiB
Duration : 6mn 37s
Overal bit rate : 2621 Kbps

Video
Format : AVC
Format/Info : Advanced Video Codec
Format profile : High@L5.1
Format settings, CABAC : Yes
Format settings, ReFrames : 3 frames
Codec ID : avc1
Duration : 6mn 37s
Bit rate mode : Variable
Bit rate : 2432 Kbps
Maximum bit rate : 9300 Kbps
Width : 1232 pixels
Height : 720 pixels
Display aspect ratio : 16/9
Frame rate mode : Constant
Frame rate : 23.976 fps
Colorimetry : 4:2:0
Scan type : Progressive
Bits/(Pixel*Frame) : 0.114
Stream size : 115 MiB

Audio
Format : AAC
Format/Info : Advanced Audio Codec
Format version : Version 4
Format profile : LC
Duration : 6mn 37s
Bit rate mode : Variable
Bit rate : 185 Kbps
Maximum bit rate : 237 Kbps
Channel(s) : 2 channels
Channel positions : L R
Sampling rate : 48.0 KHz
Stream size : 8.75 MiB

A special edition of Batman Begins was just recently released on Blu-ray.
One of the special features was the "prologue" of the Dark Knight, the
first 6 minutes of the film.

This one is a lot less CPU heavy then the other one floating on the net.
(The Dark Knight Prologue 2008 720p Blu-ray x264-SIF mkv). It shouldn't
stutter/freeze/audio out of sync unless your computer is really old and
cant play 720p files.

related torrents

Torrent name

health leech seeds Size
 

comments (0)

Main Menu