Action

Quentin Tarantino Kultfilmpack

  • Download 5x Faster
  • Download torrent
  • Direct Download
  • Rate this torrent +  |  -
Quentin Tarantino Kultfilmpack

Free and Direct Download with Usenet.nl 300GB+ free


Torrent info

Name:Quentin Tarantino Kultfilmpack

Total Size: 10.09 GB

Magnet: Magnet Link

Seeds: 0

Leechers: 0

Stream: Watch Online @ Movie4u

Last Updated: 2010-12-04 10:55:42 (Update Now)

Torrent added: 2009-08-22 16:18:51





Torrent Files List


Quentin Tarantino Kultfilmpack.nfo (Size: 10.09 GB) (Files: 14)

 Quentin Tarantino Kultfilmpack.nfo

25.07 KB

 2004 - Kill Bill Volume 2

  dex-kb2xvid2.avi

702.42 MB

  dex-kb2xvid1.avi

698.18 MB

 2003 - Kill Bill Volume 1

  dex-kbxvid2.avi

698.97 MB

  dex-kbxvid1.avi

700.37 MB

 1997 - Jackie Brown

  Jackie Brown.avi

1.00 GB

 1996 - From Dusk Till Dawn

  From.Dusk.Till.Dawn.German.1996.DVDRIP.AC3.XviD-XC.avi

700.40 MB

 1995 - Four Rooms

  Four Rooms H.264.avi

930.32 MB

 1994 - Pulp Fiction

  Pulp.Fiction.German.1994.DVDRIP.AC3.XviD-XC.cd2.avi

701.85 MB

  Pulp.Fiction.German.1994.DVDRIP.AC3.XviD-XC.cd1.avi

698.80 MB

 1994 - Natural Born Killers

  Natural_Born_Killers.DC.german.DVDrip.DivX-5.1.AC3-5.1.CD2.by.Speirs.avi

699.60 MB

  Natural_Born_Killers.DC.german.DVDrip.DivX-5.1.AC3-5.1.CD1.by.Speirs.avi

698.48 MB

 1993 - True Romance

  True.Romance.German.1993.DVDRIP.AC3.XviD-XC.avi

1.35 GB

 1992 - Reservoir Dogs

  Reservoir.Dogs.German.1992.DVDRiP.XviD.iNTERNAL-DiViDi.avi

700.00 MB
 

Announce URL:

Torrent description

___________________________________________________________________
______________________ 1992 - Reservoir Dogs ______________________
___________________________________________________________________

700 MB



General
Format : AVI
Format/Info : Audio Video Interleave
File size : 700 MiB
Duration : 1h 35mn
Overall bit rate : 1 030 Kbps
Writing application : VirtualDubMod 1.5.4.1 (build 2178/release)
Writing library : VirtualDubMod build 2178/release

Video
Format : MPEG-4 Visual
Format profile : Streaming [email protected]
Format settings, BVOP : Yes
Format settings, QPel : No
Format settings, GMC : No warppoints
Format settings, Matrix : Custom
Codec ID : XVID
Codec ID/Hint : XviD
Duration : 1h 35mn
Bit rate : 890 Kbps
Width : 640 pixels
Height : 288 pixels
Display aspect ratio : 2.222
Frame rate : 25.000 fps
Resolution : 24 bits
Colorimetry : 4:2:0
Scan type : Progressive
Bits/(Pixel*Frame) : 0.193
Stream size : 605 MiB (86)
Writing library : XviD 1.2.0.dev47 (UTC 2006-11-01)

Audio
Format : MPEG Audio
Format version : Version 1
Format profile : Layer 3
Codec ID : 55
Codec ID/Hint : MP3
Duration : 1h 35mn
Bit rate mode : Variable
Bit rate : 127 Kbps
Nominal bit rate : 144 Kbps
Channel(s) : 2 channels
Sampling rate : 48.0 KHz
Resolution : 16 bits
Stream size : 86.3 MiB (12)
Alignment : Aligned on interleaves
Interleave, duration : 24 ms (0.60 video frame)
Interleave, preload duration : 145 ms
Writing library : LAME3.97
Encoding settings : -m j -V 4 -q 2 -lowpass 17.5 --abr 144

Inhalt:

Sie nennen sich Mr. White, Mr. Orange, Mr. Pink, Mr. Blonde, Mr. Blue und Mr. Brown:
Sechs Gangster, die sich nur unter ihren Code-Namen kennen,
treffen sich zum ganz groen Coup in L.A. Gemeinsam sollen sie einen
prallgefnllten Juwelierladen ausnehmen. Aber der scheinbar perfekte Plan läuft schief.
Mitten im _berfall tauchen urplötzlich die Cops auf und eröffnen sofort
das Feuer auf die Juwelendiebe. Einer der Gangster stirbt an Ort und Stelle,
ein weiterer - Mr. Orange - wird schwer verwundet.

Nach heftigem Gefecht schaffen die _berlebenden es,
sich in eine verlassene Lagerhalle, dem nach dem _berfall vereinbarten Treffpunkt,
zu flnchten. Hier wird den Jungs blitzschnell klar,
dass einer von ihnen ein Spitzel sein muss, der ihren Plan an die Polizei verraten hat.
Aber wer von ihnen ist der Verräter? Es beginnt ein nervenzerfetzendes Psychoduell auf Leben und Tod...

___________________________________________________________________
_______________________ 1993 - True Romance _______________________
___________________________________________________________________

1350 MB



General
Format : AVI
Format/Info : Audio Video Interleave
File size : 1.35 GiB
Duration : 1h 55mn
Overall bit rate : 1 680 Kbps
Writing application : VirtualDubMod 1.5.10.2 (build 2540/release)
Writing library : VirtualDubMod build 2540/release

Video
Format : AVC
Format/Info : Advanced Video Codec
Format profile : [email protected]
Format settings, CABAC : Yes
Format settings, ReFrames : 1 frame
Codec ID : H264
Duration : 1h 55mn
Bit rate : 1 510 Kbps
Nominal bit rate : 1 500 Kbps
Width : 704 pixels
Height : 304 pixels
Display aspect ratio : 2.35
Frame rate : 25.000 fps
Resolution : 24 bits
Colorimetry : 4:2:0
Scan type : Progressive
Bits/(Pixel*Frame) : 0.282
Stream size : 1.22 GiB (90)
Writing library : x264 core 809497568

Audio
Format : AC-3
Format/Info : Audio Coding 3
Codec ID : 2000
Duration : 1h 55mn
Bit rate mode : Constant
Bit rate : 160 Kbps
Channel(s) : 2 channels
Channel positions : L R
Sampling rate : 48.0 KHz
Stream size : 132 MiB (10)
Alignment : Aligned on interleaves
Interleave, duration : 40 ms (1.00 video frame)
Interleave, preload duration : 512 ms

Inhalt:

Fnr Clarence und das Callgirl Alabama ist es Liebe auf den ersten Blick.
Clarence bricht auf, um ihren Zuhälter zu töten, und kehrt mit einem Koffer zurnck,
der randvoll gefnllt ist mit Kokain. Das Paar flieht nach Los Angeles,
wo es den Stoff an einen Filmproduzenten verkaufen will.
Doch die Mafia ist den beiden auf den Fersen ...

___________________________________________________________________
___________________ 1994 - Natural Born Killers ___________________
___________________________________________________________________

1360 MB



General
Format : AVI
Format/Info : Audio Video Interleave
File size : 698 MiB
Duration : 1h 0mn
Overall bit rate : 1 627 Kbps
Writing application : Nandub v1.0rc2
Writing library : Nandub build 1853/release

Video
Format : MPEG-4 Visual
Format settings, BVOP : Yes
Format settings, QPel : No
Format settings, GMC : No warppoints
Format settings, Matrix : Default (H.263)
Muxing mode : Packed bitstream
Codec ID : DX50
Codec ID/Hint : DivX 5
Duration : 1h 0mn
Bit rate : 1 172 Kbps
Width : 608 pixels
Height : 320 pixels
Display aspect ratio : 1.900
Frame rate : 25.000 fps
Resolution : 24 bits
Colorimetry : 4:2:0
Scan type : Progressive
Bits/(Pixel*Frame) : 0.241
Stream size : 503 MiB (72)
Writing library : DivX 5.1.0 (UTC 2003-09-02)

Audio
Format : AC-3
Format/Info : Audio Coding 3
Codec ID : 2000
Duration : 1h 0mn
Bit rate mode : Constant
Bit rate : 448 Kbps
Channel(s) : 6 channels
Channel positions : Front: L C R, Surround: L R, LFE
Sampling rate : 48.0 KHz
Stream size : 192 MiB (28)
Alignment : Split accross interleaves
Interleave, duration : 128 ms (3.20 video frames)
Interleave, preload duration : 500 ms

Inhalt:

Sie bringen in drei Wochen 52 Menschen um und werden allein durch die
sensationsgierige Öffentlichkeit zu gefeierten Stars:Mickey und Mallory.
Stets lassen sie an den Schauplätzen ihrer kaltblntig ausgenbten
Verbrechen einen _berlebenden zurnck,der von den "M&M Murders"
berichten kann.Die Medien stnrzen sich darauf,und das ganze Land hört zu...

___________________________________________________________________
_______________________ 1994 - Pulp Fiction _______________________
___________________________________________________________________

1360 MB



General
Format : AVI
Format/Info : Audio Video Interleave
File size : 699 MiB
Duration : 1h 20mn
Overall bit rate : 1 215 Kbps
Writing application : VirtualDubMod 1.5.4.1 (build 2178/release)
Writing library : VirtualDubMod build 2178/release

Video
Format : MPEG-4 Visual
Format profile : Streaming [email protected]
Format settings, BVOP : Yes
Format settings, QPel : No
Format settings, GMC : No warppoints
Format settings, Matrix : Custom
Codec ID : XVID
Codec ID/Hint : XviD
Duration : 1h 20mn
Bit rate : 824 Kbps
Width : 640 pixels
Height : 272 pixels
Display aspect ratio : 2.35
Frame rate : 25.000 fps
Resolution : 24 bits
Colorimetry : 4:2:0
Scan type : Progressive
Bits/(Pixel*Frame) : 0.189
Stream size : 474 MiB (68)
Writing library : XviD 0039 build=2005.09.25 (UTC 2005-09-25)

Audio
Format : AC-3
Format/Info : Audio Coding 3
Codec ID : 2000
Duration : 1h 20mn
Bit rate mode : Constant
Bit rate : 384 Kbps
Channel(s) : 6 channels
Channel positions : Front: L C R, Surround: L R, LFE
Sampling rate : 48.0 KHz
Stream size : 221 MiB (32)
Alignment : Split accross interleaves
Interleave, duration : 96 ms (2.40 video frames)
Interleave, preload duration : 96 ms
Language : Deutsch / Deutsch

Inhalt:

Vincent Vega und Jules Winnfield holen fnr ihren Boss Marsellus Wallace eine schwarze
Aktentasche aus einer Wohnung ab. Drei Jungs, die ihnen dabei im Wege stehen, lassen ihr Leben.
Die Killer machen sich mit einem vierten Jungen als Geisel auf den Weg ins Hauptquartier.
Doch als das Auto nber eine Straenerhöhung schaukelt, erschiet Vincent aus Versehen die Geisel.
Um den blutverspritzten Wagen zu reinigen,
machen die beiden einen Abstecher zu Jules' Freund Jimmie,
wo auf Befehl vom Boss ein Spezialist fnr schwierige Aufträge zu ihnen stöt: The Wolf...

___________________________________________________________________
________________________ 1995 - Four Rooms ________________________
___________________________________________________________________

950 MB



General
Format : AVI
Format/Info : Audio Video Interleave
File size : 930 MiB
Duration : 1h 32mn
Overall bit rate : 1 399 Kbps
Writing application : VirtualDubMod 1.5.10.2 (build 2540/release)
Writing library : VirtualDubMod build 2540/release

Video
Format : AVC
Format/Info : Advanced Video Codec
Format profile : [email protected]
Format settings, CABAC : Yes
Format settings, ReFrames : 1 frame
Codec ID : H264
Duration : 1h 32mn
Bit rate : 1 229 Kbps
Nominal bit rate : 1 220 Kbps
Width : 672 pixels
Height : 480 pixels
Display aspect ratio : 1.400
Frame rate : 25.000 fps
Resolution : 24 bits
Colorimetry : 4:2:0
Scan type : Progressive
Bits/(Pixel*Frame) : 0.152
Stream size : 817 MiB (88)
Writing library : x264 core 809497568

Audio
Format : AC-3
Format/Info : Audio Coding 3
Codec ID : 2000
Duration : 1h 32mn
Bit rate mode : Constant
Bit rate : 160 Kbps
Channel(s) : 2 channels
Channel positions : L R
Sampling rate : 48.0 KHz
Stream size : 106 MiB (11)
Alignment : Aligned on interleaves
Interleave, duration : 40 ms (1.00 video frame)
Interleave, preload duration : 512 ms

Inhalt:

Am Silvesterabend tritt Page Ted seinen Dienst in einem einst noblen,
inzwischen aber heruntergekommenen Hotel an. Ein harter Job, wie sich herausstellt,
denn Ted muss sich mit den bizarrsten Problemen herumschlagen:
Ein paar attraktive Damen benötigen fnr ein Hexenritual den Saft,
den nur ein Mann liefern kann. Ein Ehepaar in Zimmer 404 spielt "Mord aus Leidenschaft",
wobei Ted in die Schusslinie gerät.
Die Kinder eines knallharten Machos entpuppen sich als kleine Terroristen,
und zwei stark alkoholisierte Freunde spielen eine makabere Hitchcock-Wette nach,
bei der Körperteile fallen...

___________________________________________________________________
____________________ 1996 - From Dusk Till Dawn ___________________
___________________________________________________________________

717 MB



General
Format : AVI
Format/Info : Audio Video Interleave
File size : 700 MiB
Duration : 1h 26mn
Overall bit rate : 1 130 Kbps
Writing application : VirtualDubMod 1.5.4.1 (build 2178/release)
Writing library : VirtualDubMod build 2178/release

Video
Format : MPEG-4 Visual
Format profile : Streaming [email protected]
Format settings, BVOP : Yes
Format settings, QPel : No
Format settings, GMC : No warppoints
Format settings, Matrix : Custom
Codec ID : XVID
Codec ID/Hint : XviD
Duration : 1h 26mn
Bit rate : 899 Kbps
Width : 640 pixels
Height : 480 pixels
Display aspect ratio : 4/3
Frame rate : 25.000 fps
Resolution : 24 bits
Colorimetry : 4:2:0
Scan type : Progressive
Bits/(Pixel*Frame) : 0.117
Stream size : 557 MiB (80)
Writing library : XviD 0039 build=2005.09.25 (UTC 2005-09-25)

Audio
Format : AC-3
Format/Info : Audio Coding 3
Codec ID : 2000
Duration : 1h 26mn
Bit rate mode : Constant
Bit rate : 224 Kbps
Channel(s) : 2 channels
Channel positions : L R
Sampling rate : 48.0 KHz
Stream size : 139 MiB (20)
Alignment : Split accross interleaves
Interleave, duration : 96 ms (2.40 video frames)
Interleave, preload duration : 96 ms
Language : Deutsch

Inhalt:

Die Gecko-Brnder, bernchtigte Gewaltverbrecher, ziehen eine blutige Spur durch Texas.
Nach einem spektakulären Banknberfall pflastern sie ihren Fluchtweg mit
zahlreichen Leichen - der krankhafte, unberechenbare Richard rastet gelegentlich einfach aus.
Mit einem gottlosen Priester und seinen Kindern als Geiseln schaffen
die Gecko-Brnder den Sprung nber die mexikanische Grenze.
Zur Feier des Tages besaufen sie sich im "Titty Twister",
wo die einheimische Kundschaft Fremde so richtig "zum Fressen" gern hat.

___________________________________________________________________
________________________ 1997 - Jackie Brown ______________________
___________________________________________________________________

1050 MB



General
Format : AVI
Format/Info : Audio Video Interleave
File size : 1 022 MiB
Duration : 2h 27mn
Overall bit rate : 967 Kbps

Video
Format : MPEG-4 Visual
Format settings, BVOP : Yes
Format settings, QPel : No
Format settings, GMC : No warppoints
Format settings, Matrix : Default (H.263)
Muxing mode : Packed bitstream
Codec ID : DX50
Codec ID/Hint : DivX 5
Duration : 2h 27mn
Bit rate : 728 Kbps
Width : 640 pixels
Height : 480 pixels
Display aspect ratio : 4/3
Frame rate : 25.000 fps
Resolution : 24 bits
Colorimetry : 4:2:0
Scan type : Progressive
Bits/(Pixel*Frame) : 0.095
Stream size : 770 MiB (75)
Writing library : DivX 5.2.1 (DrDivX 106) (UTC 2004-09-08)

Audio
Format : MPEG Audio
Format version : Version 1
Format profile : Layer 3
Codec ID : 55
Codec ID/Hint : MP3
Duration : 2h 27mn
Bit rate mode : Constant
Bit rate : 192 Kbps
Channel(s) : 2 channels
Sampling rate : 44.1 KHz
Resolution : 16 bits
Video delay : 26ms
Stream size : 203 MiB (20)
Alignment : Split accross interleaves
Title : Audio Stream

Inhalt:

Mit Schwarzgeld wird Jackie Brown am Flughafen gestellt.
Das FBI wittert die groe Chance, durch Jackies Aussage einen Schmuggler-Ring auszuheben.
Die Cops sind bereit, Jackie laufen zu lassen, wenn sie den Namen ihres Auftraggebers preisgibt.
Die Entscheidung fällt ihr schwer, denn Ordell Robbie,
ihr Boss und Drahtzieher der dubiosen Waffen-Schmuggel-Geschäfte,
wnrde sie umbringen, wenn er Wind von einem Deal mit dem FBI bekäme.
Bevor sie sich entscheiden kann,
kommt alles ganz anders: Sie lernt den Kautionsvermittler Max Cherry kennen.
Die beiden schmieden einen Plan, und plötzlich hat Jackie die Idee,
wie es ihr gelingen könnte, Ordell gegen die Polizei auszuspielen...

___________________________________________________________________
_____________________ 2003 - Kill Bill Volume 1 ___________________
___________________________________________________________________

1360 MB



General
Format : AVI
Format/Info : Audio Video Interleave
File size : 700 MiB
Duration : 59mn 29s
Overall bit rate : 1 646 Kbps
Writing application : VirtualDubMod 1.5.4.1 (build 2178/release)
Writing library : VirtualDubMod build 2178/release

Video
Format : MPEG-4 Visual
Format profile : [email protected]
Format settings, BVOP : Yes
Format settings, QPel : No
Format settings, GMC : No warppoints
Format settings, Matrix : Custom
Codec ID : XVID
Codec ID/Hint : XviD
Duration : 59mn 29s
Bit rate : 1 255 Kbps
Width : 720 pixels
Height : 304 pixels
Display aspect ratio : 2.35
Frame rate : 25.000 fps
Resolution : 24 bits
Colorimetry : 4:2:0
Scan type : Progressive
Bits/(Pixel*Frame) : 0.229
Stream size : 534 MiB (76)
Writing library : XviD 1.0.2 (UTC 2004-08-29)

Audio
Format : AC-3
Format/Info : Audio Coding 3
Codec ID : 2000
Duration : 59mn 29s
Bit rate mode : Constant
Bit rate : 384 Kbps
Channel(s) : 6 channels
Channel positions : Front: L C R, Surround: L R, LFE
Sampling rate : 48.0 KHz
Stream size : 163 MiB (23)
Alignment : Split accross interleaves
Interleave, duration : 96 ms (2.40 video frames)
Interleave, preload duration : 96 ms
Language : Deutsch / Deutsch

Inhalt:

Eine knhl wirkende Blondine erwacht nach vier Jahren Koma im Krankenhaus.
Erinnerungen voller Schmerz erscheinen in ihrem Kopf der Tag ihrer Hochzeit
ist das Letzte woran sie sich erinnern kann. Es sollte der schönste
Tag ihres Lebens werden, doch stattdessen endet er in einem Massaker.
Ihr ehemaliger Liebhaber und Auftraggeber lie die Hochzeitsgesellschaft
von seinem Killerkommando exekutieren und jagte ihr selbst eine Kugel in den Kopf.

Jetzt beherrscht sie nur noch ein Gefnhl: der eiskalte Rachedurst gegennber denen,
die ihr Leben zerstört haben. Sie beginnt ihren Vergeltungsfeldzug und
hinterlässt nber zwei Kontinente eine blutige Schneise in den Reihen ihrer Feinde.

___________________________________________________________________
_____________________ 2003 - Kill Bill Volume 2 ___________________
___________________________________________________________________

1360 MB



General
Format : AVI
Format/Info : Audio Video Interleave
File size : 698 MiB
Duration : 1h 2mn
Overall bit rate : 1 554 Kbps
Writing application : VirtualDubMod 1.5.4.1 (build 2178/release)
Writing library : VirtualDubMod build 2178/release

Video
Format : MPEG-4 Visual
Format profile : [email protected]
Format settings, BVOP : Yes
Format settings, QPel : No
Format settings, GMC : No warppoints
Format settings, Matrix : Custom
Codec ID : XVID
Codec ID/Hint : XviD
Duration : 1h 2mn
Bit rate : 1 163 Kbps
Width : 704 pixels
Height : 304 pixels
Display aspect ratio : 2.35
Frame rate : 25.000 fps
Resolution : 24 bits
Colorimetry : 4:2:0
Scan type : Progressive
Bits/(Pixel*Frame) : 0.217
Stream size : 523 MiB (75)
Writing library : XviD 1.0.2 (UTC 2004-08-29)

Audio
Format : AC-3
Format/Info : Audio Coding 3
Codec ID : 2000
Duration : 1h 2mn
Bit rate mode : Constant
Bit rate : 384 Kbps
Channel(s) : 6 channels
Channel positions : Front: L C R, Surround: L R, LFE
Sampling rate : 48.0 KHz
Stream size : 173 MiB (25)
Alignment : Split accross interleaves
Interleave, duration : 96 ms (2.40 video frames)
Interleave, preload duration : 96 ms
Language : Deutsch / Deutsch

Inhalt:

Der Blutdurst der Braut (UMA THURMAN) ist noch nicht gestillt.
Vier Jahre zuvor hatten ihr ehemaliger Geliebter Bill (DAVID CARRADINE) und dessen
Deadly Viper Assassination Squad am Tag ihrer Hochzeit ihren Verlobten,
vermeintlich ihr ungeborenes Baby getötet und die Braut selbst sterbend zurnckgelassen.
Nachdem sie aus dem Koma erwacht war, hatte sie in Japan O-Ren Ishii (LUCY LIU)
und in einer kalifornischen Vorstadt Vernita Green (VIVICA A. FOX) im Duell ausgelöscht.

Nun stehen noch drei weitere Namen auf der Todesliste der Braut:
Bills heruntergekommener Bruder Budd (MICHAEL MADSEN) und ihre ewige
Rivalin Elle Driver (DARYL HANNAH) mnssen beseitigt werden, bevor sie
sich Bill in dessen Unterschlupf in Mexiko vornehmen kann. Auf dem
dornigen Weg wartet so manche _berraschung auf die Rächerin ... und
die schockierende Erkenntnis, dass ihre Tochter am Leben ist und von
Bill grogezogen wird ...

related torrents

Torrent name

health leech seeds Size
 

comments (0)

Main Menu