Animation

The Polar Express [2004] DVDRip N!CK

  • Download 5x Faster
  • Download torrent
  • Direct Download
  • Rate this torrent +  |  -
The Polar Express [2004] DVDRip N!CK

Free and Direct Download with Usenet 300GB+ free


Torrent info

Name:The Polar Express [2004] DVDRip N!CK

Total Size: 708.21 MB

Magnet: Magnet Link

Seeds: 0

Leechers: 0

Stream: Watch Online @ Movie4u

Last Updated: 2011-06-07 21:18:29 (Update Now)

Torrent added: 2009-08-22 15:12:59




Torrent Files List


Release Info.txt (Size: 708.21 MB) (Files: 5)

 Release Info.txt

1.72 KB

 Sample.avi

6.81 MB

 The Polar Express [2004] DVDRip - N!CK.avi

701.29 MB

 Subtitles

  The Polar Express [2004] DVDRip [ROM].srt

48.05 KB

  The Polar Express [2004] DVDRip [ENG].srt

55.15 KB
 

Announce URL: http://tracker.publicbt.com/announce

Torrent description

General
Complete name : C:\The Polar Express [2004] DVDRip - N!CK\The Polar Express [2004] DVDRip - N!CK.avi
Format : AVI
Format/Info : Audio Video Interleave
File size : 701 MiB
Duration : 1h 39mn
Overal bit rate : 981 Kbps

Video
Format : MPEG-4 Visual
Format profile : Streaming [email protected]
Format settings, BVOP : Yes
Format settings, QPel : No
Format settings, GMC : No warppoints
Format settings, Matrix : Default
Codec ID : XVID
Codec ID/Hint : XviD
Duration : 1h 39mn
Bit rate : 840 Kbps
Width : 704 pixels
Height : 298 pixels
Display aspect ratio : 2.35
Frame rate : 23.976 fps
Resolution : 8 bits
Colorimetry : 4:2:0
Scan type : Progressive
Bits/(Pixel*Frame) : 0.167
Stream size : 601 MiB
Writing library : XviD 50

Audio
Format : MPEG Audio
Format version : Version 1
Format profile : Layer 3
Codec ID : 55
Codec ID/Hint : MP3
Bit rate mode : Constant
Bit rate : 128 Kbps
Channel(s) : 2 channels
Sampling rate : 48.0 KHz
Resolution : 16 bits
Stream size : 91.5 MiB

related torrents

Torrent name

health leech seeds Size
 

comments (0)

Main Menu