Animation

THE LAND BEFORE TIME@KIDZCORNER DVDRIP[ENG]

  • Download 5x Faster
  • Download torrent
  • Direct Download
  • Rate this torrent +  |  -
THE LAND BEFORE TIME@KIDZCORNER DVDRIP[ENG]

Free and Direct Download with Usenet 300GB+ free


Torrent info

Name:THE LAND BEFORE TIME@KIDZCORNER DVDRIP[ENG]

Total Size: 630.75 MB

Magnet: Magnet Link

Seeds: 0

Leechers: 0

Stream: Watch Online @ Movie4u

Last Updated: 2015-09-04 10:19:26 (Update Now)

Torrent added: 2009-08-22 15:09:53




Torrent Files List


Torrent downloaded from Demonoid.com.txt (Size: 630.75 MB) (Files: 3)

 Torrent downloaded from Demonoid.com.txt

0.05 KB

 Noname.jpg

49.57 KB

 LAND_BEFORE_TIME

  TITLE01.avi

630.70 MB
 

Announce URL:

Torrent description

In a long-ago age of rumbling volcanoes and perilous earthquakes, a young bracheosaurus named Little Foot suddenly finds himself on his own. Setting to find the lush feeding grounds of the legendary Great Valley, he meets up with four other young dinosaurs who agree to join his quest. On their daring trek across a landscape filled with excitement and danger, the brave little band encounters hungry predators and daunting challenges as they discover new lessons in life and the importance of teamwork.

Presented by Steven Spielberg and George Lucas with direction by Don Bluth, The Land Before Time is a brilliantly imaginative, delightfully animated tale of friendship, loyalty and love, certain to capture the hearts of viewers young and old.

Format : AVI
Format/Info : Audio Video Interleave
File size : 631 MiB
Duration : 1h 5mn
Overall bit rate : 1 339 Kbps

Video
Format : MPEG-4 Visual
Format profile : Simple@L3
Format settings, BVOP : No
Format settings, QPel : No
Format settings, GMC : No warppoints
Format settings, Matrix : Default
Codec ID : XVID
Codec ID/Hint : XviD
Duration : 1h 5mn
Bit rate : 1 199 Kbps
Width : 640 pixels
Height : 480 pixels
Display aspect ratio : 4/3
Frame rate : 25.000 fps
Resolution : 24 bits
Colorimetry : 4:2:0
Scan type : Progressive
Bits/(Pixel*Frame) : 0.156
Stream size : 565 MiB (90%)
Writing library : Magic0432

Audio
Format : MPEG Audio
Format version : Version 1
Format profile : Layer 3
Codec ID : 55
Codec ID/Hint : MP3
Duration : 1h 5mn
Bit rate mode : Constant
Bit rate : 128 Kbps
Channel(s) : 2 channels
Sampling rate : 44.1 KHz
Resolution : 16 bits
Stream size : 60.3 MiB (10%)
Alignment : Aligned on interleaves
Interleave, duration : 26 ms (0.65 video frame)
Writing library : LAME3.97

related torrents

Torrent name

health leech seeds Size
 

comments (0)

Main Menu