Animation

SPACE [email protected] DVDRIP ENG]

  • Download 5x Faster
  • Download torrent
  • Direct Download
  • Rate this torrent +  |  -

Torrent info

Name:SPACE [email protected] DVDRIP ENG]

Total Size: 802.76 MB

Magnet: Magnet Link

Seeds: 5

Leechers: 1

Stream: Watch Online @ Movie4u

Last Updated: 2011-08-26 12:47:12 (Update Now)

Torrent added: 2009-08-22 14:50:58





Torrent Files List


Torrent downloaded from Demonoid.com-1.txt (Size: 802.76 MB) (Files: 3)

 Torrent downloaded from Demonoid.com-1.txt

0.05 KB

 Space_Jam-[cdcovers_cc]-front.jpg

398.38 KB

 NONAME

  TITLE01.avi

802.37 MB
 

Announce URL: http://inferno.demonoid.com:3409/announce

Torrent description

His Airness and His Hareness: what a team! Michael Jordan slams, Bugs Bunny jams and a cavalcade of looney tunes stars hoop it up in Space Jam, the rim-rattlin animated/live-action roundball romp from Hollywood talents who refuse to let their imaginations be earthbound.

The jokes fly and the fun never stops as the Tune Squad takes on the Nerdlucks in a hardcourt game to decide if the Looney Tunes remain here… or become attraction at a far-off galactic off-ramp called Moron Mountain. The Nerdlucks have a monstrous secret weapon on their side: they’ve stolen the skills of top NBA stars like Charles Barkley and Patrick Ewing and become Monstars. But that’s not all folks. The Tune Squad also has a secret weapon. And he just happens to be the finest player in this or any other universe. He’s outta this world and so is the fun!

Format/Info : Audio Video Interleave
File size : 802 MiB
Duration : 1h 23mn
Overall bit rate : 1 339 Kbps

Video
Format : MPEG-4 Visual
Format profile : [email protected]
Format settings, BVOP : No
Format settings, QPel : No
Format settings, GMC : No warppoints
Format settings, Matrix : Default
Codec ID : XVID
Codec ID/Hint : XviD
Duration : 1h 23mn
Bit rate : 1 199 Kbps
Width : 640 pixels
Height : 360 pixels
Display aspect ratio : 16/9
Frame rate : 25.000 fps
Resolution : 24 bits
Colorimetry : 4:2:0
Scan type : Progressive
Bits/(Pixel*Frame) : 0.208
Stream size : 718 MiB (90%)
Writing library : Magic0432

Audio
Format : MPEG Audio
Format version : Version 1
Format profile : Layer 3
Codec ID : 55
Codec ID/Hint : MP3
Duration : 1h 23mn
Bit rate mode : Constant
Bit rate : 128 Kbps
Channel(s) : 2 channels
Sampling rate : 44.1 KHz
Resolution : 16 bits
Stream size : 76.7 MiB (10%)
Alignment : Aligned on interleaves
Interleave, duration : 26 ms (0.65 video frame)

related torrents

Torrent name

health leech seeds Size
 

comments (0)

Main Menu