Animation

Scooby Doo E La Spada Del Samurai 2009 iTALiAN DVDRiP XviD BBZ avi[Ultima Frontiera]

  • Download 5x Faster
  • Download torrent
  • Direct Download
  • Rate this torrent +  |  -

Torrent info

Name:Scooby Doo E La Spada Del Samurai 2009 iTALiAN DVDRiP XviD BBZ avi[Ultima Frontiera]

Total Size: 703.04 MB

Magnet: Magnet Link

Seeds: 0

Leechers: 0

Stream: Watch Online @ Movie4u

Last Updated: 2015-04-30 01:44:42 (Update Now)

Torrent added: 2009-08-22 14:41:54



VPN For Torrents

Torrent Files List


Scooby.Doo.E.La.Spada.Del.Samurai.2009.iTALiAN.DVDRiP.XviD-BBZ.avi (Size: 703.04 MB) (Files: 1)

 Scooby.Doo.E.La.Spada.Del.Samurai.2009.iTALiAN.DVDRiP.XviD-BBZ.avi

703.04 MB
 

tracker

leech seeds
 

Torrent description

www.ufrontiera.altervista.org


Titolo: Scooby Doo E La Spada Del Samurai
Titolo originale: Scooby-Doo and the Samurai Sword
Anno: 2009
Genere: Animazione, Avventura
Durata: 72
Regia: Chris Berkeley
Cast: Sandra Bullock, Viggo Mortensen,
Dominic West, Elizabeth Perkins,
Steve Buscemi.




Il gruppo viaggia verso il Giappone circumnavigando
l'Asia ed il Pacifico alla ricerca di un tesoro che li aiuterà
a risolvere una serie di antichi enigmi.



Code:

General
Complete name : Dvdrip/Scooby.Doo.E.La.Spada.Del.Samurai.2009.iTALiAN.DVDRiP.XviD-BBZ.avi
Format : AVI
Format/Info : Audio Video Interleave
File size : 703 MiB
Duration : 1h 11mn
Overall bit rate : 1 370 Kbps
Writing application : VirtualDubMod 1.5.10.2 (build 2540/release)
Writing library : VirtualDubMod build 2540/release

Video
ID : 0
Format : MPEG-4 Visual
Format profile : [email protected]
Format settings, BVOP : Yes
Format settings, QPel : No
Format settings, GMC : No warppoints
Format settings, Matrix : Default (MPEG)
Codec ID : XVID
Codec ID/Hint : XviD
Duration : 1h 11mn
Bit rate : 1 226 Kbps
Width : 512 pixels
Height : 384 pixels
Display aspect ratio : 4/3
Frame rate : 25.000 fps
Resolution : 24 bits
Colorimetry : 4:2:0
Scan type : Progressive
Bits/(Pixel*Frame) : 0.249
Stream size : 629 MiB (89%)
Writing library : XviD 1.1.2 (UTC 2006-11-01)

Audio
ID : 1
Format : MPEG Audio
Format version : Version 1
Format profile : Layer 3
Codec ID : 55
Codec ID/Hint : MP3
Duration : 1h 11mn
Bit rate mode : Variable
Bit rate : 131 Kbps
Nominal bit rate : 128 Kbps
Channel(s) : 2 channels
Sampling rate : 48.0 KHz
Resolution : 16 bits
Stream size : 67.3 MiB (10%)
Alignment : Aligned on interleaves
Interleave, duration : 24 ms (0.60 video frame)
Interleave, preload duration : 140 ms
Writing library : LAME3.90.
Encoding settings : -m j -V 4 -q 2 -lowpass 17.6 --abr 128

related torrents

Torrent name

health leech seeds Size
 


comments (0)

Main Menu