Animation

Ratatouille [2007] DVDRip N!CK

  • Download 5x Faster
  • Download torrent
  • Direct Download
  • Rate this torrent +  |  -
Ratatouille [2007] DVDRip N!CK

Free and Direct Download with Usenet 300GB+ free


Torrent info

Name:Ratatouille [2007] DVDRip N!CK

Total Size: 709.44 MB

Magnet: Magnet Link

Seeds: 2

Leechers: 1

Stream: Watch Online @ Movie4u

Last Updated: 2010-12-21 04:48:32 (Update Now)

Torrent added: 2009-08-22 14:36:19




Torrent Files List


Release Info.txt (Size: 709.44 MB) (Files: 5)

 Release Info.txt

0.98 KB

 Sample.avi

10.31 MB

 Ratatouille [2007] DVDRip - N!CK.avi

698.93 MB

 Subtitles

  Ratatouille [2007] DVDRip [ROM].srt

98.98 KB

  Ratatouille [2007] DVDRip [ENG].srt

101.41 KB
 

Announce URL: http://tracker.openbittorrent.com:80/announce

Torrent description

General
Complete name : C:\Ratatouille [2007] DVDRip - N!CK\Ratatouille [2007] DVDRip - N!CK.avi
Format : AVI
Format/Info : Audio Video Interleave
File size : 699 MiB
Duration : 1h 50mn
Overal bit rate : 884 Kbps

Video
Format : MPEG-4 Visual
Format profile : Streaming [email protected]
Format settings, BVOP : Yes
Format settings, QPel : No
Format settings, GMC : No warppoints
Format settings, Matrix : Default
Codec ID : XVID
Codec ID/Hint : XviD
Duration : 1h 50mn
Bit rate : 775 Kbps
Width : 672 pixels
Height : 288 pixels
Display aspect ratio : 2.35
Frame rate : 23.976 fps
Resolution : 8 bits
Colorimetry : 4:2:0
Scan type : Progressive
Bits/(Pixel*Frame) : 0.167
Stream size : 613 MiB
Writing library : XviD 50

Audio
Format : MPEG Audio
Format version : Version 1
Format profile : Layer 3
Codec ID : 55
Codec ID/Hint : MP3
Bit rate mode : Constant
Bit rate : 96.0 Kbps
Channel(s) : 2 channels
Sampling rate : 48.0 KHz
Resolution : 16 bits
Stream size : 75.9 MiB

related torrents

Torrent name

health leech seeds Size
 

comments (0)

Main Menu