Other

banana split sat22aug2009 PHILIPPINE tvrip (TAGALOG)

  • Download 5x Faster
  • Download torrent
  • Direct Download
  • Rate this torrent +  |  -
banana split sat22aug2009 PHILIPPINE tvrip (TAGALOG)

Free and Direct Download with Usenet.nl 300GB+ free


Torrent info

Name:banana split sat22aug2009 PHILIPPINE tvrip (TAGALOG)

Total Size: 302.60 MB

Magnet: Magnet Link

Seeds: 3

Leechers: 8

Stream: Watch Online @ Movie4u

Last Updated: 2010-11-30 17:31:07 (Update Now)

Torrent added: 2009-08-22 14:33:45





Torrent Files List


Torrent downloaded from Demonoid.com.txt (Size: 302.60 MB) (Files: 3)

 Torrent downloaded from Demonoid.com.txt

0.05 KB

 sample.avi

8.55 MB

 banana split sat22aug2009 PHILIPPINES tvrip (TAGALOG).avi

294.05 MB
 

Announce URL: http://inferno.demonoid.com:3419/announce

Torrent description

The new season of Banana Split welcomes a new barkada. Joining sexy and pretty girls Angelica Panganiban,
Princess Ryan, and RR Enriquez are the wacky trio of John Prats, Jayson Gainza, and Zanjoe
Marudo. Also taking comedy to the next level is the hilarious tandem of Pokwang and Pooh. Watch out for new
sketches, segments, and spoofs that will surely make your
Saturday nights hilarious as ever.

Format : AVI
Format/Info : Audio Video Interleave
File size : 294 MiB
Duration : 30mn 26s
Overall bit rate : 1 350 Kbps
Writing application : VirtualDubMod 1.5.4.1 (build 2178/release)
Writing library : VirtualDub build 32559/release

Video
ID : 0
Format : MPEG-4 Visual
Format profile : [email protected]
Format settings, BVOP : Yes
Format settings, QPel : No
Format settings, GMC : No warppoints
Format settings, Matrix : Default (H.263)
Muxing mode : Packed bitstream
Codec ID : XVID
Codec ID/Hint : XviD
Duration : 30mn 26s
Bit rate : 1 236 Kbps
Width : 400 pixels
Height : 304 pixels
Display aspect ratio : 4:3
Frame rate : 29.970 fps
Resolution : 24 bits
Colorimetry : 4:2:0
Scan type : Progressive
Bits/(Pixel*Frame) : 0.339
Stream size : 269 MiB (92%)
Writing library : XviD 1.2.1 (UTC 2008-12-04)

Audio
ID : 1
Format : MPEG Audio
Format version : Version 1
Format profile : Layer 3
Codec ID : 55
Codec ID/Hint : MP3
Duration : 30mn 26s
Bit rate mode : Variable
Bit rate : 103 Kbps
Channel(s) : 2 channels
Sampling rate : 32.0 KHz
Resolution : 16 bits
Stream size : 22.5 MiB (8%)
Alignment : Aligned on interleaves
Interleave, duration : 36 ms (1.08 video frame)

related torrents

Torrent name

health leech seeds Size
 

comments (0)

Main Menu