Horror

Minotaur [2006][DVDRip][XviD][AC3[WLH]

  • Download 5x Faster
  • Download torrent
  • Direct Download
  • Rate this torrent +  |  -
Minotaur [2006][DVDRip][XviD][AC3[WLH]

Free and Direct Download with Usenet.nl 300GB+ free


Torrent info

Name:Minotaur [2006][DVDRip][XviD][AC3[WLH]

Total Size: 1.21 GB

Magnet: Magnet Link

Seeds: 2

Leechers: 3

Stream: Watch Online @ Movie4u

Last Updated: 0000-00-00 00:00:00 (Update Now)

Torrent added: 2009-08-22 14:31:38





Torrent Files List


Torrent_downloaded_from_Demonoid.com.txt (Size: 1.21 GB) (Files: 6)

 Torrent_downloaded_from_Demonoid.com.txt

0.05 KB

 Minotaur [2006][DVDRip][XviD][AC3[WLH].avi

1.21 GB

 NFO.txt

1.56 KB

 Pics & Thumbs

  DSRG.png

25.67 KB

  thumbs.jpg

518.64 KB

  COVER.jpg

34.42 KB
 

Announce URL: http://inferno.demonoid.com:3419/announce

Torrent description

Curse the god...Slay the beast
In an Iron Age Village, eight youths must be sacrificed every five years to a bloodthirsty monster, the Minotaur, who is seen as a god. The offerings are lowered into the Minotaur's vast labyrinth beneath the palace to face the beast...and their death. When his love is lost to the sacrifice, Theo believes she is still alive, and sets off to the palace intent on killing the bull-god.

Cast

Rutger Hauer
Tom Hardy
Michelle Van Der Water
Tony Todd
Lex Shrapnel
Jonathan Readwin

Format : AVI
Original source form : DVD_VOLUME
File size : 1.21 GiB
Duration : 1h 31mn
Genre : Horror
DVD Release Date: June 20, 2006
IMDB Rating : 3.2/10 1,806 votes
IMDB Link : http://www.imdb.com/title/tt0415160/

Video info :
Format : Xvid (2-pass) MPEG-4 Visual
Bit rate : 1 429 Kbps
Width : 720 pixels
Height : 416 pixels
Display aspect ratio : 16:9
Frame rate : 23.976 fps
Resolution : 24 bits
Bits/(Pixel*Frame) : 0.199
Stream size : 935 MiB (76%)


Audio info :
Format : AC3 5.1 Dolby Digital
Bit rate mode : Constant
Bit rate : 448 Kbps
Channel(s) : 6 Channels Front: L C R, Surround: L R, LFE
Sampling rate : 48.0 KHz
Stream size : 293 MiB (24%)
Alignment : Aligned on interleaves
Interleave duration : 32 ms (0.77 video frame)
Language : English


related torrents

Torrent name

health leech seeds Size
 

comments (0)

Main Menu