Other

Funny Lady (1975) Barbra Streisand (STEREO,opt subs ENG+NORDIC)

  • Download 5x Faster
  • Download torrent
  • Direct Download
  • Rate this torrent +  |  -
Funny Lady (1975) Barbra Streisand (STEREO,opt subs ENG+NORDIC)

Anonymous and Free Direct Download 300GB+


Torrent info

Name:Funny Lady (1975) Barbra Streisand (STEREO,opt subs ENG+NORDIC)

Total Size: 699.08 MB

Magnet: Magnet Link

Seeds: 0

Leechers: 0

Stream: Watch Online @ Movie4u

Last Updated: 2011-02-04 04:39:05 (Update Now)

Torrent added: 2009-08-22 14:31:38



VPN For Torrents

Torrent Files List


ZZ-Optional subtitles (Size: 699.08 MB) (Files: 7)

 ZZ-Optional subtitles

  Swedish.rar

794.33 KB

  Notes on subtitle files and burning of discs.txt

2.57 KB

  Norwegian.rar

784.60 KB

  Finnish.rar

832.10 KB

  English.rar

0.99 MB

 Info about this release.txt

4.89 KB

 Funny Lady (1975) Barbra Streisand (STEREO, optional MULTISUBS)_Kuth.avi

695.73 MB
 

Announce URL:

Torrent description

http://www.imdb.com/title/tt0073026/

Optional subtitles in separate idx/sub files (Work in Windows Media Player etc., see enclosed Note): English, Finnish, Norwegian, Swedish. (Sorry, Danish friends, your language was out of synch. Please use Norwegian or English.)

Continued story from "Funny Girl", of singer Fanny Brice's stormy relationship with showman Billy Rose (James Caan). This is the one with all the insanely lavish theatre production that fall apart.

This film has been desecrated over the years by the TV channels sending fullscreen pan-and-scan versions with mono sound. I could not find a torrent for it, so I made a rip for you.

Surprisingly good picture and stereo quality for such an old film.

My ripping procedure now produces decent quality for such a long film compressed
into just 700 MiB.

Widescreen DVDrip XviD 2-pass 704x288, great stereo sound AC3.
Runs well in both my standalone DivX players.

MediaInfo analysis:
Format/Info : Audio Video Interleave
File size : 696 MiB
Duration : 2h 12mn
Overal bit rate : 736 Kbps

Video
Format : MPEG-4 Visual
Format profile : Streaming [email protected]
Format settings, BVOP : Yes
Format settings, QPel : No
Format settings, GMC : No warppoints
Format settings, Matrix : Default
Muxing mode : Packet Bitstream
Codec ID : XVID
Codec ID/Hint : XviD
Duration : 2h 12mn
Bit rate : 598 Kbps
Width : 704 pixels
Height : 288 pixels
Display aspect ratio : 2.444
Frame rate : 25.000 fps
Resolution : 8 bits
Colorimetry : 4:2:0
Scan type : Progressive
Bits/(Pixel*Frame) : 0.118
Stream size : 566 MiB
Writing library : XviD 1.2.0.dev47 (UTC 2006-11-01)

Audio
Format : MPEG Audio
Format version : Version 1
Format profile : Layer 3
Codec ID : 55
Codec ID/Hint : MP3
Duration : 2h 12mn
Bit rate mode : Constant
Bit rate : 128 Kbps
Minimum bit rate : 128 Kbps
Channel(s) : 2 channels
Sampling rate : 48.0 KHz
Resolution : 16 bits
Stream size : 121 MiB
Writing library : LAME3.97
Encoding settings : CBR

Source: PAL rental 6.5 Giga (note that PAL/NTSC will give no problems for avi files).

Have a look at my other torrents at http://thepiratebay.org/user/Kuthumi/

related torrents

Torrent name

health leech seeds Size
 


comments (0)

Main Menu