Comedy

The Boat That Rocked (2009) DVDrip (Eng+Opt MULTISUBS) Kuth

  • Download 5x Faster
  • Download torrent
  • Direct Download
  • Rate this torrent +  |  -
The Boat That Rocked (2009) DVDrip (Eng+Opt MULTISUBS) Kuth

Free and Direct Download with Usenet.nl 300GB+ free


Torrent info

Name:The Boat That Rocked (2009) DVDrip (Eng+Opt MULTISUBS) Kuth

Total Size: 712.39 MB

Magnet: Magnet Link

Seeds: 0

Leechers: 0

Stream: Watch Online @ Movie4u

Last Updated: 2016-01-29 08:19:48 (Update Now)

Torrent added: 2009-08-22 14:31:36





Torrent Files List


ZZ-Optional multisubs (Size: 712.39 MB) (Files: 13)

 ZZ-Optional multisubs

  Swedish.rar

1.06 MB

  Notes on subtitle files and burning of discs.txt

2.57 KB

  Icelandic.rar

1.14 MB

  Norwegian.rar

943.63 KB

  Finnish.rar

835.47 KB

  Hungarian.rar

1.03 MB

  English for the hearing impaired.rar

1.23 MB

  Danish.rar

1.00 MB

  Dutch.rar

877.68 KB

  Arabic.rar

1.13 MB

 The Boat That Rocked (2009) DVDrip (Optional MULTISUBS)_Kuth.avi

693.55 MB

 Info about this release.txt

4.70 KB

 AA-Sample

  AA-Sample_The Boat That Rocked (2009) DVDrip_Kuth.avi

9.66 MB
 

tracker

leech seeds
 

Torrent description

http://www.imdb.com/title/tt1131729/

Optional subtitles in separate idx/sub files (Work in Windows Media Player etc., see enclosed Note): Arabic, Danish, Dutch, English for the hearing impaired, Finnish, Hungarian, Icelandic, Norwegian, Swedish.

With: Philip Seymour Hoffman, Tom Sturridge, Kenneth Branagh, Rhys Ifans.

Charming period comedy about an illegal radio station in the North Sea in the 1960's. Many authentic good old songs.

My ripping procedure now produces decent quality for such a long film compressed
into just 800 MiB. I enclose a sample for ye weak in faith.

Widescreen DVDrip XviD 2-pass 704x288, great stereo sound AC3.
Runs well in both my standalone DivX players.

MediaInfo analysis:
Format/Info : Audio Video Interleave
File size : 694 MiB
Duration : 2h 9mn
Overal bit rate : 748 Kbps

Video
Format : MPEG-4 Visual
Format profile : Streaming [email protected]
Format settings, BVOP : Yes
Format settings, QPel : No
Format settings, GMC : No warppoints
Format settings, Matrix : Default
Muxing mode : Packet Bitstream
Codec ID : XVID
Codec ID/Hint : XviD
Duration : 2h 9mn
Bit rate : 610 Kbps
Width : 704 pixels
Height : 288 pixels
Display aspect ratio : 2.444
Frame rate : 25.000 fps
Resolution : 8 bits
Colorimetry : 4:2:0
Scan type : Progressive
Bits/(Pixel*Frame) : 0.120
Stream size : 566 MiB
Writing library : XviD 1.2.0.dev47 (UTC 2006-11-01)

Audio
Format : MPEG Audio
Format version : Version 1
Format profile : Layer 3
Codec ID : 55
Codec ID/Hint : MP3
Duration : 2h 9mn
Bit rate mode : Constant
Bit rate : 128 Kbps
Minimum bit rate : 128 Kbps
Channel(s) : 2 channels
Sampling rate : 48.0 KHz
Resolution : 16 bits
Stream size : 119 MiB
Writing library : LAME3.97
Encoding settings : CBR


Source: PAL retail (note that PAL/NTSC will give no problems for avi files).

Have a look at my other torrents at http://thepiratebay.org/user/Kuthumi/

related torrents

Torrent name

health leech seeds Size
 

comments (0)

Main Menu