Drama

Gandhi (1982) Ben Kingsley (Eng+Optional MULTISUBS) Kuth

  • Download 5x Faster
  • Download torrent
  • Direct Download
  • Rate this torrent +  |  -
Gandhi (1982) Ben Kingsley (Eng+Optional MULTISUBS) Kuth

Free and Direct Download with Usenet.nl 300GB+ free


Torrent info

Name:Gandhi (1982) Ben Kingsley (Eng+Optional MULTISUBS) Kuth

Total Size: 821.20 MB

Magnet: Magnet Link

Seeds: 7

Leechers: 3

Stream: Watch Online @ Movie4u

Last Updated: 2016-01-30 20:48:24 (Update Now)

Torrent added: 2009-08-22 14:31:34





Torrent Files List


ZZ-Optional subtitles (Size: 821.20 MB) (Files: 18)

 ZZ-Optional subtitles

  Turkish.rar

1.26 MB

  Swedish.rar

1.18 MB

  Notes on subtitle files and burning of discs.txt

2.57 KB

  Icelandic.rar

1.44 MB

  Norwegian.rar

1.16 MB

  Hebrew.rar

1.25 MB

  Hindi.rar

1.54 MB

  German.rar

1.61 MB

  Greek.rar

1.14 MB

  Finnish.rar

1.22 MB

  French.rar

1.28 MB

  Dutch.rar

1.20 MB

  English.rar

1.34 MB

  Arabic.rar

1.25 MB

  Danish.rar

2.42 MB

 Info about this release.txt

4.65 KB

 Gandhi (1982) Ben Kingsley (Optional MULTISUBS)_Kuth.avi

793.77 MB

 AA-Sample

  AA-Sample-Gandhi (1982) Ben Kingsley_Kuth.avi

8.16 MB
 

tracker

leech seeds
 

Torrent description

http://www.imdb.com/title/tt0083987/

Optional subtitles in separate idx/sub files (Work in Windows Media Player etc., see enclosed Note): Arabic, Danish, Dutch, English, Finnish, French, German, Greek, Hebrew, Hindi, Icelandic, Norwegian, Swedish, Turkish.

This masterpiece by Richard Attenborough won 8 Oscars, about the most inspirational man who lived in modern times. Perhaps he still could give us back the hope of a peaceful solution to our troubled word.

My ripping procedure now produces decent quality for such a long film compressed
into just 800 MiB. I enclose a sample for ye weak in faith.

Widescreen DVDrip XviD 2-pass 704x288, great stereo sound AC3.
Runs well in both my standalone DivX players.

MediaInfo analysis:
Format/Info : Audio Video Interleave
File size : 794 MiB
Duration : 3h 3mn
Overal bit rate : 605 Kbps

Video
Format : MPEG-4 Visual
Format profile : Streaming [email protected]
Format settings, BVOP : Yes
Format settings, QPel : No
Format settings, GMC : No warppoints
Format settings, Matrix : Default
Muxing mode : Packet Bitstream
Codec ID : XVID
Codec ID/Hint : XviD
Duration : 3h 3mn
Bit rate : 467 Kbps
Width : 704 pixels
Height : 288 pixels
Display aspect ratio : 2.444
Frame rate : 25.000 fps
Resolution : 8 bits
Colorimetry : 4:2:0
Scan type : Progressive
Bits/(Pixel*Frame) : 0.092
Stream size : 613 MiB
Writing library : XviD 1.2.0.dev47 (UTC 2006-11-01)

Audio
Format : MPEG Audio
Format version : Version 1
Format profile : Layer 3
Codec ID : 55
Codec ID/Hint : MP3
Duration : 3h 3mn
Bit rate mode : Constant
Bit rate : 128 Kbps
Minimum bit rate : 128 Kbps
Channel(s) : 2 channels
Sampling rate : 48.0 KHz
Resolution : 16 bits
Stream size : 168 MiB
Writing library : LAME3.97
Encoding settings : CBR

Source: PAL retail 7.8 Giga (note that PAL/NTSC will give no problems for avi files).
Have a look at my other torrents at http://thepiratebay.org/user/Kuthumi/

related torrents

Torrent name

health leech seeds Size
 

comments (0)

Main Menu