Comedy

The Money Pit (1986) Tom Hanks comedy (Eng+Optional multisubs) Kuth

  • Download 5x Faster
  • Download torrent
  • Direct Download
  • Rate this torrent +  |  -
The Money Pit (1986) Tom Hanks comedy (Eng+Optional multisubs) Kuth

Free and Direct Download with Usenet 300GB+ free


Torrent info

Name:The Money Pit (1986) Tom Hanks comedy (Eng+Optional multisubs) Kuth

Total Size: 704.26 MB

Magnet: Magnet Link

Seeds: 0

Leechers: 0

Stream: Watch Online @ Movie4u

Last Updated: 2015-09-10 10:01:59 (Update Now)

Torrent added: 2009-08-22 14:31:32




Torrent Files List


ZZ-Optional subtitles (Size: 704.26 MB) (Files: 14)

 ZZ-Optional subtitles

  Russian.rar

903.00 KB

  Swedish.rar

888.21 KB

  Notes on subtitle files and burning of discs.txt

2.57 KB

  Norwegian.rar

803.35 KB

  Latvian.rar

0.99 MB

  Lithuanian.rar

0.99 MB

  Icelandic.rar

0.98 MB

  Estonian.rar

993.67 KB

  Finnish.rar

824.21 KB

  English for the hearing impaired.rar

1.24 MB

  Danish.rar

909.11 KB

  Dutch.rar

822.66 KB

 The Money Pit (1986) Tom Hanks comedy (Optional multisubs)_Kuth.avi

694.04 MB

 Info about this release.txt

4.56 KB
 

tracker

leech seeds
 

Torrent description

The Money Pit (1986) Tom Hanks comedy (Optional multisubs)
http://www.imdb.com/title/tt0091541/

aka:
Kærlighed og Tømmermænd (Dk)
Rahareikä (Fi)
Katta i sekken (No)
Hem dyra hem (Se)

Optional subtitles in separate idx/sub files (Work in Windows Media Player etc., see enclosed Note): Danish, Dutch, English for the hearing impaired, Estonian, Finnish, Icelandic, Latvian, Lithuanian, Norwegian, Russian, Swedish.

Classic Tom Hanks comedy. Mandatory for anyone who wants to buy an old house (or has already bought one) which he has only inspected by candlelight.

Widescreen DVDrip XviD 2-pass 720x368, great stereo sound AC3.
Runs well in both my standalone DivX players.

MediaInfo analysis:
Format/Info : Audio Video Interleave
File size : 694 MiB
Duration : 1h 27mn
Overal bit rate : 1114 Kbps

Video
Format : MPEG-4 Visual
Format profile : Streaming Video@L1
Format settings, BVOP : Yes
Format settings, QPel : No
Format settings, GMC : No warppoints
Format settings, Matrix : Default
Muxing mode : Packet Bitstream
Codec ID : XVID
Codec ID/Hint : XviD
Duration : 1h 27mn
Bit rate : 976 Kbps
Width : 720 pixels
Height : 368 pixels
Display aspect ratio : 1.957
Frame rate : 25.000 fps
Resolution : 8 bits
Colorimetry : 4:2:0
Scan type : Progressive
Bits/(Pixel*Frame) : 0.147
Stream size : 608 MiB
Writing library : XviD 1.2.0.dev47 (UTC 2006-11-01)

Audio
Format : MPEG Audio
Format version : Version 1
Format profile : Layer 3
Codec ID : 55
Codec ID/Hint : MP3
Duration : 1h 27mn
Bit rate mode : Constant
Bit rate : 128 Kbps
Minimum bit rate : 128 Kbps
Channel(s) : 2 channels
Sampling rate : 48.0 KHz
Resolution : 16 bits
Stream size : 79.7 MiB
Writing library : LAME3.97
Encoding settings : CBR

Source: PAL native (note that PAL/NTSC will give no problems for avi files).

Have a look at my other torrents at http://thepiratebay.org/user/Kuthumi/

related torrents

Torrent name

health leech seeds Size

The Money Pit 1986 Comedy

0 0 320.00 MB 0

The Money Pit 1986 Comedy

2 3 715.00 MB 0
 

comments (0)

Main Menu