Animation

Open Season2[2008] Dvdrip Xvid [Eng][Dutch] AC3[5 1] RoCK&BlueLadyRG

  • Download 5x Faster
  • Download torrent
  • Direct Download
  • Rate this torrent +  |  -
Open Season2[2008] Dvdrip Xvid [Eng][Dutch] AC3[5 1] RoCK&BlueLadyRG

Free and Direct Download with Usenet.nl 300GB+ free


Torrent info

Name:Open Season2[2008] Dvdrip Xvid [Eng][Dutch] AC3[5 1] RoCK&BlueLadyRG

Total Size: 1.37 GB

Magnet: Magnet Link

Seeds: 10

Leechers: 18

Stream: Watch Online @ Movie4u

Last Updated: 2011-01-04 15:40:45 (Update Now)

Torrent added: 2009-08-22 14:25:13





Torrent Files List


Open.Season2[2008].Dvdrip.Xvid.[Eng][Dutch].AC3[5.1]-RoCK&BlueLadyRG.srt (Size: 1.37 GB) (Files: 3)

 Open.Season2[2008].Dvdrip.Xvid.[Eng][Dutch].AC3[5.1]-RoCK&BlueLadyRG.srt

99.58 KB

 Open.Season2[2008].Dvdrip.Xvid.[Eng][Dutch].AC3[5.1]-RoCK&BlueLadyRG.nfo

5.43 KB

 Open.Season2[2008].Dvdrip.Xvid.[Eng][Dutch].AC3[5.1]-RoCK&BlueLadyRG.avi

1.37 GB
 

Announce URL: http://vip.tracker.thepiratebay.org:80/announce

Torrent description

This avi has two audiostreams, English and Dutch both AC3 5.1. In your player just choose the stream you want same goes for converting to DVD or convert both.


RoCK & BlueLady RG

*******************************************************************************
Proudly presents: Open Season 2
*******************************************************************************

-------------------------------------------------------------------------------
General Information
-------------------------------------------------------------------------------
Type : Movie
Burn Tested : Yes
Subtitles : English
: Dutch can be found on http://www.genesis-sp.com

Format : AVI
Format/Info : Audio Video Interleave
File size : 1.37 GiB
Duration : 1h 13mn
Overall bit rate : 2 668 Kbps
Writing application : VirtualDubMod 1.5.10.2 (build 2540/release)
Writing library : VirtualDubMod build 2540/release

Audio English
Format : AC-3
Format/Info : Audio Coding 3
Codec ID : 2000
Duration : 1h 13mn
Bit rate mode : Constant
Bit rate : 448 Kbps
Channel(s) : 6 channels
Channel positions : Front: L C R, Surround: L R, LFE
Sampling rate : 48.0 KHz
Stream size : 235 MiB (17%)
Alignment : Split accross interleaves
Interleave, duration : 40 ms (1.00 video frame)
Interleave, preload duration : 500 ms

Audio Dutch
Format : AC-3
Format/Info : Audio Coding 3
Codec ID : 2000
Duration : 1h 13mn
Bit rate mode : Constant
Bit rate : 448 Kbps
Channel(s) : 6 channels
Channel positions : Front: L C R, Surround: L R, LFE
Sampling rate : 48.0 KHz
Stream size : 235 MiB (17%)
Alignment : Split accross interleaves
Interleave, duration : 40 ms (1.00 video frame)
Interleave, preload duration : 500 ms

Video
Format : MPEG-4 Visual
Format settings, BVOP : No
Format settings, QPel : No
Format settings, GMC : No warppoints
Format settings, Matrix : Default
Codec ID : XVID
Codec ID/Hint : XviD
Duration : 1h 13mn
Bit rate : 1 758 Kbps
Width : 720 pixels
Height : 384 pixels
Display aspect ratio : 1.875
Frame rate : 25.000 fps
Resolution : 24 bits
Colorimetry : 4:2:0
Scan type : Progressive
Bits/(Pixel*Frame) : 0.254
Stream size : 922 MiB (66%)
Writing library : XviD 1.0.3 (UTC 2004-12-20)


Source : Retail-DVD
Original Format : PAL
Genre : Animation | Adventure | Comedy | Family
IMDb Rating : 5.7 (555 Votes)
Movie Information : http://www.imdb.com/title/tt1107365/
DVD Retail Date : january 27, 2009

-------------------------------------------------------------------------------
Post Information
-------------------------------------------------------------------------------
Posted by............: RoCK (http://www.genesis-sp.com)
Posted on............: 17-12-2008

-------------------------------------------------------------------------------
Release Notes
-------------------------------------------------------------------------------
After falling head over hooves in love with Giselle, Elliot's road to the altar
takes a slight detour when Mr. Weenie is kidnapped by a group of pampered pets
determined to return him to his owners.

Directors: Matthew O'Callaghan
: Todd Wilderman

Writer : David I. Stern


Cast :

Joel McHale ... Elliot (voice)
Mike Epps ... Boog (voice)
Jane Krakowski ... Giselle (voice)
Crispin Glover ... Fifi (voice)
Jacquie Barnbrook ... Fifi's Owner (voice)
Cody Cameron ... Mr. Weenie (voice)
Olivia Hack ... Charlene (voice)
Danny Mann ... Serge
Sean Mullen ... Roger (voice)
Steve Schirripa ... Roberto (voice)
Larramie Doc Shaw ... Hunter
Fred Stoller ... Stanley
Hans Tester ... Additional Voices


Enjoy this movie!



------------------------------------------------------------------------------------------
Announcement
------------------------------------------------------------------------------------------
I decided to drop the 1cd versions and replace them with movies in MKV format. This means
smaller filesizes with higher quality. The movies you can watch in VLC or download the x264
codec!

If you want to decode it and burn it on dvd use convertxtodvd 3


RoCK.






------------------------------------------------------------------------------------------
You can find us both at: http://www.genesis-sp.com/
------------------------------------------------------------------------------------------

related torrents

Torrent name

health leech seeds Size
 

comments (0)

Main Menu