Animation

Monsters Inc [2001] DVDRip N!CK

  • Download 5x Faster
  • Download torrent
  • Direct Download
  • Rate this torrent +  |  -
Monsters Inc [2001] DVDRip N!CK

Anonymous and Free Direct Download


Torrent info

Name:Monsters Inc [2001] DVDRip N!CK

Total Size: 702.09 MB

Magnet: Magnet Link

Seeds: 1

Leechers: 5

Stream: Watch Online @ Movie4u

Last Updated: 2010-10-04 06:27:23 (Update Now)

Torrent added: 2009-08-22 14:17:40



VPN For Torrents

Torrent Files List


Release Info.txt (Size: 702.09 MB) (Files: 5)

 Release Info.txt

0.98 KB

 Sample.avi

4.13 MB

 Monsters Inc. [2001] DVDRip - N!CK.avi

697.80 MB

 Subtitles

  Monsters Inc. [2001] DVDRip [ROM].srt

77.77 KB

  Monsters Inc. [2001] DVDRip [ENG].srt

79.93 KB
 

Announce URL: http://tracker.openbittorrent.com:80/announce

Torrent description

General
Complete name : C:\Monsters Inc. [2001] DVDRip - N!CK\Monsters Inc. [2001] DVDRip - N!CK.avi
Format : AVI
Format/Info : Audio Video Interleave
File size : 698 MiB
Duration : 1h 32mn
Overal bit rate : 1057 Kbps

Video
Format : MPEG-4 Visual
Format profile : Streaming [email protected]
Format settings, BVOP : Yes
Format settings, QPel : No
Format settings, GMC : No warppoints
Format settings, Matrix : Default
Codec ID : XVID
Codec ID/Hint : XviD
Duration : 1h 32mn
Bit rate : 949 Kbps
Width : 672 pixels
Height : 364 pixels
Display aspect ratio : 16/9
Frame rate : 23.976 fps
Resolution : 8 bits
Colorimetry : 4:2:0
Scan type : Progressive
Bits/(Pixel*Frame) : 0.162
Stream size : 626 MiB
Writing library : XviD 50

Audio
Format : MPEG Audio
Format version : Version 1
Format profile : Layer 3
Codec ID : 55
Codec ID/Hint : MP3
Bit rate mode : Constant
Bit rate : 96.0 Kbps
Channel(s) : 2 channels
Sampling rate : 48.0 KHz
Resolution : 16 bits
Stream size : 63.4 MiB

related torrents

Torrent name

health leech seeds Size
 


comments (0)

Main Menu