Animation

Lavatory Konstantin Bronzit avi

  • Download 5x Faster
  • Download torrent
  • Direct Download
  • Rate this torrent +  |  -
Lavatory Konstantin Bronzit avi

Free and Direct Download with Usenet.nl 300GB+ free


Torrent info

Name:Lavatory Konstantin Bronzit avi

Total Size: 146.98 MB

Magnet: Magnet Link

Seeds: 3

Leechers: 2

Stream: Watch Online @ Movie4u

Last Updated: 2010-11-27 17:30:10 (Update Now)

Torrent added: 2009-08-22 13:59:14





Torrent Files List


Lavatory - Konstantin Bronzit.avi (Size: 146.98 MB) (Files: 1)

 Lavatory - Konstantin Bronzit.avi

146.98 MB
 

Announce URL: http://open.tracker.thepiratebay.org/announce

Torrent description


“Ubornaya istoriya — lyubovnaya istoriya” (known in English as “Lavatory Lovestory”) is a 10-minute hand-drawn cartoon by Konstantin Bronzit about a lavatory attendant.

General
Format : AVI
Format/Info : Audio Video Interleave
File size : 147 MiB
Duration : 9mn 39s
Overall bit rate : 2 128 Kbps

Video
Format : MPEG-4 Visual
Format profile : Streaming [email protected]
Format settings, BVOP : Yes
Format settings, QPel : No
Format settings, GMC : No warppoints
Format settings, Matrix : Default
Codec ID : XVID
Codec ID/Hint : XviD
Duration : 9mn 39s
Bit rate : 1 987 Kbps
Width : 704 pixels
Height : 432 pixels
Display aspect ratio : 1.630
Frame rate : 25.000 fps
Resolution : 24 bits
Colorimetry : 4:2:0
Scan type : Progressive
Bits/(Pixel*Frame) : 0.261
Stream size : 137 MiB (93%)
Writing library : XviD 1.2.0.dev49

Audio
Format : MPEG Audio
Format version : Version 1
Format profile : Layer 3
Codec ID : 55
Codec ID/Hint : MP3
Duration : 9mn 38s
Bit rate mode : Constant
Bit rate : 128 Kbps
Channel(s) : 2 channels
Sampling rate : 48.0 KHz
Resolution : 16 bits
Stream size : 8.83 MiB (6%)
Alignment : Split accross interleaves
Interleave, duration : 24 ms (0.60 video frame)

related torrents

Torrent name

health leech seeds Size

Lavatory Lovestory avi

0 0 132.77 MB 0
 

comments (0)

Main Menu