Pop

Elisa Soundtrack 96 06 live, Lossless Flac + Cue tntvillage scambioetico orgby Ramasutra

  • Download 5x Faster
  • Download torrent
  • Direct Download
  • Rate this torrent +  |  -

Torrent info

Name:Elisa Soundtrack 96 06 live, Lossless Flac + Cue tntvillage scambioetico orgby Ramasutra

Total Size: 495.32 MB

Magnet: Magnet Link

Seeds: 0

Leechers: 0

Stream: Watch Online @ Movie4u

Last Updated: 2016-01-13 19:53:46 (Update Now)

Torrent added: 2008-07-19 21:36:38



VPN For Torrents

Torrent Files List


Elisa - Soundtrack '96-'06 LIVE.cue (Size: 495.32 MB) (Files: 6)

 Elisa - Soundtrack '96-'06 LIVE.cue

1.58 KB

 Elisa - Soundtrack '96-'06 LIVE.flac

492.83 MB

 Elisa - Soundtrack Live ´96-´06 - Back.jpg

1.10 MB

 Elisa - Soundtrack Live ´96-´06 - CD (1-2).jpg

978.57 KB

 Elisa - Soundtrack Live ´96-´06 - Front.jpg

444.53 KB

 Soundtrack '96-'06 LIVE.log

4.07 KB
 

tracker

leech seeds
 

Torrent description

Elisa   Soundtrack 96   06 live, Lossless Flac + Cue tntvillage scambioetico orgby Ramasutra preview 0Elisa   Soundtrack 96   06 live, Lossless Flac + Cue tntvillage scambioetico orgby Ramasutra preview 1

[color=green]:::->Dati Album<-:::[/color]


Autore: Elisa
Titolo: Soundtrack 96- 06
Anno:2006
Genere: Pop & rock italiano
Etichetta: sugarmusic
fonte cd /originale /cdda
Cover : Incluse
------------------------------------------------------------------------------------------------------------------------
[color=green]:::->Tracklist<-:::[/color]

1. Stay
2. Gli ostacoli del cuore (con Ligabue)
3. Broken
4. Swan
5. Labyrinth
6. Together
7. Gift
8. Almeno tu nell’universo
9. Heaven out of hell
10. Dancing
11. Una poesia anche per te
12. A feast for me
13. Sleeping in your hand
14. Luce (Tramonti a Nord Est)
15. Rainbow
16. Eppure sentire (Un senso di te)
17. Qualcosa che non c’è


Elisa   Soundtrack 96   06 live, Lossless Flac + Cue tntvillage scambioetico orgby Ramasutra preview 2




-----------------------------------------------------------------------------------------------------------------------

Sembra ieri che quella sconosciuta e timida ragazzina di Monfalcone, seduta al pianoforte in un teatro milanese, lasciava a bocca aperta un’intera platea di addetti ai lavori. Invece sono passati dieci anni e, come tutti avevano capito, di strada ne ha fatta! Tanta da essere la prima artista per cui un mito come Ligabue si è “scomodato” a scrivere musica e parole di una canzone, Gli ostacoli del cuore, uno degli inediti inclusi in questa raccolta. 11 brani in inglese e 5 in italiano per raccontare tutto il talento di Elisa, interprete intensa e delicata, tra le migliori di casa nostra.


[color=green]:::->Dati Tecnici<-:::[/color]

[color=red] Formato : Flac [/color]
Programma usato [Eac]

[CODE]
Exact Audio Copy V0.99 prebeta 3 from 28. July 2007

EAC extraction logfile from 15. July 2008, 16:37

Elisa / Soundtrack '96-'06 LIVE

Used drive : _NEC DVD_RW ND-3550A Adapter: 5 ID: 0

Read mode : Secure
Utilize accurate stream : Yes
Defeat audio cache : Yes
Make use of C2 pointers : No

Read offset correction : 48
Overread into Lead-In and Lead-Out : No
Fill up missing offset samples with silence : Yes
Delete leading and trailing silent blocks : No
Null samples used in CRC calculations : No
Used interface : Installed external ASPI interface

Used output format : User Defined Encoder
Selected bitrate : 768 kBit/s
Quality : High
Add ID3 tag : No
Command line compressor : C:\Programmi\Exact Audio Copy\FLAC\FLAC.EXE
Additional command line options : -6 -V -T "ARTIST=%a" -T "TITLE=%t" -T "ALBUM=%g" -T "DATE=%y" -T "TRACKNUMBER=%n" -T "GENRE=%m" -T "COMMENT=%e" %s -o %d


TOC of the extracted CD

Track | Start | Length | Start sector | End sector
---------------------------------------------------------
1 | 0:00.00 | 4:32.48 | 0 | 20447
2 | 4:32.48 | 5:00.04 | 20448 | 42951
3 | 9:32.52 | 5:53.30 | 42952 | 69456
4 | 15:26.07 | 3:45.01 | 69457 | 86332
5 | 19:11.08 | 4:15.08 | 86333 | 105465
6 | 23:26.16 | 6:04.74 | 105466 | 132839
7 | 29:31.15 | 4:34.28 | 132840 | 153417
8 | 34:05.43 | 5:05.30 | 153418 | 176322
9 | 39:10.73 | 4:24.34 | 176323 | 196156
10 | 43:35.32 | 5:17.48 | 196157 | 219979
11 | 48:53.05 | 4:16.01 | 219980 | 239180
12 | 53:09.06 | 4:16.60 | 239181 | 258440
13 | 57:25.66 | 4:32.37 | 258441 | 278877
14 | 61:58.28 | 3:53.54 | 278878 | 296406
15 | 65:52.07 | 5:36.04 | 296407 | 321610


Range status and errors

Selected range

Filename D:\Documents and Settings\salvo.SN116508160310\Documenti\Elisa - Soundtrack '96-'06 LIVE.wav

Peak level 100.0 %
Range quality 99.9 %
Test CRC 8F54D8C2
Copy CRC 8F54D8C2
Copy OK

No errors occurred


AccurateRip summary

Track 1 cannot be verified as accurate (confidence 2) [B1AC913E], AccurateRip returned [86DD1F2A]
Track 2 cannot be verified as accurate (confidence 2) [A1840359], AccurateRip returned [58602F1D]
Track 3 cannot be verified as accurate (confidence 2) [154BA414], AccurateRip returned [DA0141F6]
Track 4 cannot be verified as accurate (confidence 2) [6AEC36DC], AccurateRip returned [3A036B4E]
Track 5 cannot be verified as accurate (confidence 2) [7EB87CE7], AccurateRip returned [72F9E245]
Track 6 cannot be verified as accurate (confidence 2) [F0644D88], AccurateRip returned [EFFFAB20]
Track 7 cannot be verified as accurate (confidence 2) [72DE477C], AccurateRip returned [842AAE04]
Track 8 cannot be verified as accurate (confidence 2) [47DA37CF], AccurateRip returned [CA9EB06D]
Track 9 cannot be verified as accurate (confidence 2) [7F2E1E9B], AccurateRip returned [8D54C221]
Track 10 cannot be verified as accurate (confidence 2) [751E7079], AccurateRip returned [825C6C3A]
Track 11 cannot be verified as accurate (confidence 2) [E30EE5B0], AccurateRip returned [A4C67B23]
Track 12 cannot be verified as accurate (confidence 2) [23E76967], AccurateRip returned [52A5F07C]
Track 13 cannot be verified as accurate (confidence 2) [8E61AC84], AccurateRip returned [BCC88DCB]
Track 14 cannot be verified as accurate (confidence 2) [02F608D3], AccurateRip returned [3B552029]
Track 15 cannot be verified as accurate (confidence 2) [24654054], AccurateRip returned [126340AD]

No tracks could be verified as accurate
You may have a different pressing from the one(s) in the database

End of status report





[/CODE]

related torrents

Torrent name

health leech seeds Size
 


comments (0)

Main Menu