Animation

Ice Age [2002] DVDRip N!CK

  • Download 5x Faster
  • Download torrent
  • Direct Download
  • Rate this torrent +  |  -
Ice Age [2002] DVDRip N!CK

Anonymous and Free Direct Download


Torrent info

Name:Ice Age [2002] DVDRip N!CK

Total Size: 711.37 MB

Magnet: Magnet Link

Seeds: 0

Leechers: 0

Stream: Watch Online @ Movie4u

Last Updated: 2011-06-11 14:09:37 (Update Now)

Torrent added: 2009-08-22 13:48:05



VPN For Torrents

Torrent Files List


Release Info.txt (Size: 711.37 MB) (Files: 5)

 Release Info.txt

1.70 KB

 Sample.avi

11.63 MB

 Ice Age [2002] DVDRip - N!CK.avi

699.64 MB

 Subtitles

  Ice Age [2002] DVDRip [ROM].srt

45.84 KB

  Ice Age [2002] DVDRip [ENG].srt

51.26 KB
 

Announce URL:

Torrent description

General
Complete name : C:\Ice Age [2002] DVDRip - N!CK\Ice Age [2002] DVDRip - N!CK.avi
Format : AVI
Format/Info : Audio Video Interleave
File size : 700 MiB
Duration : 1h 21mn
Overal bit rate : 1206 Kbps

Video
Format : MPEG-4 Visual
Format profile : Streaming [email protected]
Format settings, BVOP : Yes
Format settings, QPel : No
Format settings, GMC : No warppoints
Format settings, Matrix : Default
Codec ID : XVID
Codec ID/Hint : XviD
Duration : 1h 21mn
Bit rate : 1066 Kbps
Width : 704 pixels
Height : 378 pixels
Display aspect ratio : 1.862
Frame rate : 23.976 fps
Resolution : 8 bits
Colorimetry : 4:2:0
Scan type : Progressive
Bits/(Pixel*Frame) : 0.167
Stream size : 618 MiB
Writing library : XviD 50

Audio
Format : MPEG Audio
Format version : Version 1
Format profile : Layer 3
Codec ID : 55
Codec ID/Hint : MP3
Bit rate mode : Constant
Bit rate : 128 Kbps
Channel(s) : 2 channels
Sampling rate : 48.0 KHz
Resolution : 16 bits
Stream size : 74.2 MiB

related torrents

Torrent name

health leech seeds Size
 


comments (0)

Main Menu