Animation

Ice Age The Meltdown [2006] DVDRip N!CK

  • Download 5x Faster
  • Download torrent
  • Direct Download
  • Rate this torrent +  |  -
Ice Age The Meltdown [2006] DVDRip N!CK

Anonymous and Direct Download 300GB+ free


Torrent info

Name:Ice Age The Meltdown [2006] DVDRip N!CK

Total Size: 710.20 MB

Magnet: Magnet Link

Seeds: 0

Leechers: 0

Stream: Watch Online @ Movie4u

Last Updated: 2011-09-13 16:13:11 (Update Now)

Torrent added: 2009-08-22 13:47:38




Torrent Files List


Sample.avi (Size: 710.20 MB) (Files: 5)

 Sample.avi

10.30 MB

 Release Info.txt

1.73 KB

 Ice Age - The Meltdown [2006] DVDRip - N!CK.avi

699.78 MB

 Subtitles

  Ice Age - The Meltdown [2006] DVDRip [ENG].srt

52.99 KB

  Ice Age - The Meltdown [2006] DVDRip [ROM].srt

66.57 KB
 

Announce URL:

Torrent description

General
Complete name : C:\Ice Age - The Meltdown [2006] DVDRip - N!CK\Ice Age - The Meltdown [2006] DVDRip - N!CK.avi
Format : AVI
Format/Info : Audio Video Interleave
File size : 700 MiB
Duration : 1h 30mn
Overal bit rate : 1086 Kbps

Video
Format : MPEG-4 Visual
Format profile : Streaming [email protected]
Format settings, BVOP : Yes
Format settings, QPel : No
Format settings, GMC : No warppoints
Format settings, Matrix : Default
Codec ID : XVID
Codec ID/Hint : XviD
Duration : 1h 30mn
Bit rate : 945 Kbps
Width : 704 pixels
Height : 378 pixels
Display aspect ratio : 1.862
Frame rate : 23.976 fps
Resolution : 8 bits
Colorimetry : 4:2:0
Scan type : Progressive
Bits/(Pixel*Frame) : 0.148
Stream size : 609 MiB
Writing library : XviD 50

Audio
Format : MPEG Audio
Format version : Version 1
Format profile : Layer 3
Codec ID : 55
Codec ID/Hint : MP3
Bit rate mode : Constant
Bit rate : 128 Kbps
Channel(s) : 2 channels
Sampling rate : 48.0 KHz
Resolution : 16 bits
Stream size : 82.5 MiB

related torrents

Torrent name

health leech seeds Size
 


comments (0)

Main Menu