Animation

Howls Moving Castle(2004){DvdRip Xvid}[1337][blackjesus]

  • Download 5x Faster
  • Download torrent
  • Direct Download
  • Rate this torrent +  |  -
Howls Moving Castle(2004){DvdRip Xvid}[1337][blackjesus]

Anonymous and Direct Download 300GB+ free


Torrent info

Name:Howls Moving Castle(2004){DvdRip Xvid}[1337][blackjesus]

Total Size: 801.96 MB

Magnet: Magnet Link

Seeds: 0

Leechers: 0

Stream: Watch Online @ Movie4u

Last Updated: 2014-04-15 12:00:35 (Update Now)

Torrent added: 2009-08-22 13:45:23




Torrent Files List


HowlsMovingCastle.avi (Size: 801.96 MB) (Files: 4)

 HowlsMovingCastle.avi

801.96 MB

 INFO.txt

3.07 KB

 BlAcKjEsUs.txt

0.30 KB

 1337x.org.txt

0.02 KB
 

Announce URL:

Torrent description

Howl's Moving Castle (2004)






A love story between an 18-year-old girl named Sofî, cursed by a witch into an old woman's body, and a magician named Hauru. Under the curse, Sofî sets out to seek her fortune, which takes her to Hauru's strange moving castle. In the castle, Sophie meets Hauru's fire demon, named Karishifâ. Seeing that she is under a curse, the demon makes a deal with Sophie--if she breaks the contract he is under with Hauru, then Karushifâ will lift the curse that Sophie is under, and she will return to her 18-year-old shape.

http://www.youtube.com/watch?v=9hbntEofuT0
^^Trailer^^

http://www.imdb.com/title/tt0347149/
^^IMDB^^


Format : AVI
Format/Info : Audio Video Interleave
File size : 802 MiB
Duration : 1h 54mn
Overall bit rate : 982 Kbps


Format : MPEG-4 Visual
Format profile : Streaming [email protected]
Format settings, BVOP : Yes
Format settings, QPel : No
Format settings, GMC : No warppoints
Format settings, Matrix : Default (H.263)
Muxing mode : Packed bitstream
Codec ID : XVID
Codec ID/Hint : XviD
Duration : 1h 54mn
Bit rate : 860 Kbps
Width : 624 pixels
Height : 336 pixels
Display aspect ratio : 1.857
Frame rate : 25.000 fps
Resolution : 24 bits
Colorimetry : 4:2:0
Scan type : Progressive
Bits/(Pixel*Frame) : 0.164
Stream size : 702 MiB (88%)
Writing library : XviD 1.2.1 (UTC 2008-12-04)



Format : MPEG Audio
Format version : Version 1
Format profile : Layer 3
Codec ID : 55
Codec ID/Hint : MP3
Duration : 1h 54mn
Bit rate mode : Variable
Bit rate : 109 Kbps
Channel(s) : 2 channels
Sampling rate : 48.0 KHz
Resolution : 16 bits
Stream size : 89.2 MiB (11%)
Alignment : Aligned on interleaves
Interleave, duration : 24 ms (0.60 video frame)
Interleave, preload duration : 168 ms
Writing library : LAME3.98.2




related torrents

Torrent name

health leech seeds Size
 


comments (0)

Main Menu