Animation

Happy Feet [2006] DVDRip N!CK

  • Download 5x Faster
  • Download torrent
  • Direct Download
  • Rate this torrent +  |  -
Happy Feet [2006] DVDRip N!CK

Download FREE And Anonymously


Torrent info

Name:Happy Feet [2006] DVDRip N!CK

Total Size: 711.32 MB

Magnet: Magnet Link

Seeds: 1

Leechers: 3

Stream: Watch Full Movie @ Movie4u

Last Updated: 2010-10-06 23:03:03 (Update Now)

Torrent added: 2009-08-22 13:40:30



VPN For Torrents

Torrent Files List


Sample.avi (Size: 711.32 MB) (Files: 5)

 Sample.avi

4.49 MB

 Release Info.txt

0.98 KB

 Happy Feet [2006] DVDRip - N!CK.avi

706.64 MB

 Subtitles

  Happy Feet [2006] DVDRip [ENG].srt

96.45 KB

  Happy Feet [2006] DVDRip [ROM].srt

99.84 KB
4div c݇бs-ar2 h1P1ȉ11

Announce URL: http://tracker.openbittorrent.com:80/announce

Torrent description

General
Complete name : C:\Happy Feet [2006] DVDRip - N!CK\Happy Feet [2006] DVDRip - N!CK.avi
Format : AVI
Format/Info : Audio Video Interleave
File size : 707 MiB
Duration : 1h 48mn
Overal bit rate : 910 Kbps

Video
Format : MPEG-4 Visual
Format profile : Streaming [email protected]
Format settings, BVOP : Yes
Format settings, QPel : No
Format settings, GMC : No warppoints
Format settings, Matrix : Default
Codec ID : XVID
Codec ID/Hint : XviD
Duration : 1h 48mn
Bit rate : 801 Kbps
Width : 640 pixels
Height : 288 pixels
Display aspect ratio : 2.222
Frame rate : 23.976 fps
Resolution : 8 bits
Colorimetry : 4:2:0
Scan type : Progressive
Bits/(Pixel*Frame) : 0.181
Stream size : 622 MiB
Writing library : XviD 50

Audio
Format : MPEG Audio
Format version : Version 1
Format profile : Layer 3
Codec ID : 55
Codec ID/Hint : MP3
Bit rate mode : Constant
Bit rate : 96.0 Kbps
Channel(s) : 2 channels
Sampling rate : 48.0 KHz
Resolution : 16 bits
Stream size : 74.5 MiB

related torrents

Torrent name

health leech seeds Size

Happy Feet (2006)dvdrip (

0 2 703.00 MB 0
 


comments (0)

Main Menu

 

script data-cfasync="false" src="//d2ghscazvn398x.cloudfront.net/?cshgd=690275">