Animation

Final Fantasy Unlimited

  • Download 5x Faster
  • Download torrent
  • Direct Download
  • Rate this torrent +  |  -
Final Fantasy Unlimited

Free and Direct Download with Usenet.nl 300GB+ free


Torrent info

Name:Final Fantasy Unlimited

Total Size: 5.97 GB

Magnet: Magnet Link

Seeds: 0

Leechers: 0

Stream: Watch Online @ Movie4u

Last Updated: 2010-08-20 13:34:27 (Update Now)

Torrent added: 2009-08-22 13:30:27





Torrent Files List


Final Fantasy Unlimited 25 - Kaze - Der Ruhm des Lebens.avi (Size: 5.72 GB) (Files: 24)

 Final Fantasy Unlimited 25 - Kaze - Der Ruhm des Lebens.avi

243.68 MB

 Final Fantasy Unlimited 24 - Chaos - Der entschleierte Graf.avi

250.70 MB

 Final Fantasy Unlimited 23 - Teros - Die Suche nach dem fliegenden Wasser.avi

249.43 MB

 Final Fantasy Unlimited 22 - Moogle - Verloren gegangene Erinnerungen.avi

254.28 MB

 Final Fantasy Unlimited 21 - Kaktus - Die umherschweifende See.avi

254.31 MB

 Final Fantasy Unlimited 20 - Yu - Das Geheimnis von Gaudium.avi

254.28 MB

 Final Fantasy Unlimited 19 - Ai - Treffen mit Clear.avi

254.33 MB

 Final Fantasy Unlimited 18 - Madoushi - Der Kampf zwischen Kiri und Kumo.avi

254.25 MB

 Final Fantasy Unlimited 17 - Frosch - Das kleinste der großen Abenteuer.avi

254.34 MB

 Final Fantasy Unlimited 16 - Kigen-Drachen, hinter dem Lachen.avi

230.16 MB

 Final Fantasy Unlimited 15 - Jane, das Geheimnis des Ozean-Puzzles.avi

230.51 MB

 Final Fantasy Unlimited 14 - Omega, Wiedersehen und Aufbruch.avi

230.42 MB

 Final Fantasy Unlimited 13 - Meteor, furchbare Erinnerung.avi

230.13 MB

 Final Fantasy Unlimited 12 - Fungus, ewiges Leben.avi

230.12 MB

 Final Fantasy Unlimited 11 - Ciel, die Verwandlung des Chocobo.avi

230.53 MB

 Final Fantasy Unlimited 10 - Die Villa, die Erinnerung an Sagiso.avi

230.12 MB

 Final Fantasy Unlimited 09 - Oscha, die endlose Aufgabe.avi

230.12 MB

 Final Fantasy Unlimited 08 - Das Herz von Magun.avi

249.99 MB

 Final Fantasy Unlimited 07 - Der Feind des Dimensionentunnels.avi

250.02 MB

 Final Fantasy Unlimited 06 - Die Seelenretterin.avi

249.99 MB

 Final Fantasy Unlimited 05 - Das Abenteuer auf der Unterirdischen Wasserstraße.avi

250.01 MB

 Final Fantasy Unlimited 04 - Die weiße Studie.avi

250.02 MB

 Final Fantasy Unlimited 03 - Die Stadt des süßen Dufts.avi

249.99 MB

 Final Fantasy Unlimited 02 - Der Mann des schwarzen Waldes.avi

249.98 MB
 

Announce URL: http://tbtracker.lir.dk/announce.php

Torrent description

!!GERMAN TRACKER!!

KOMPLETT - GER DUB

Format : AVI
Format/Info : Audio Video Interleave
Dateigre : 250 MiB
Duration : 22min
Gesamte Bitrate : 1 535 Kbps
Verwendetes Programm : VirtualDubMod 1.5.4.1 (build 2178/release)
verwendete Encoder-Bibliothek : VirtualDubMod build 2178/release

Video
Format : MPEG-4 Visual
Format settings, BVOP : Nein
Format settings, QPel : Nein
Format settings, GMC : No warppoints
Format settings, Matrix : Default
Codec ID : DX50
Codec ID/Hint : DivX 5
Duration : 22min
Bitrate : 1 394 Kbps
Breite : 576 Pixel
Höhe : 432 Pixel
Bildseitenverhältnis : 4/3
Bildwiederholungsrate : 25,000 FPS
Auflösung : 24 bits
Colorimetry : 4:2:0
Scan type : Progressive
Bits/(Pixel*Frame) : 0.224
Stream size : 227 MiB (91)
verwendete Encoder-Bibliothek : DivX 5.0.5 (UTC 2003-04-24)

Audio
Format : MPEG Audio
Format version : Version 1
Format profile : Layer 3
Codec ID : 55
Codec ID/Hint : MP3
Duration : 22min
Bitraten-Modus : Variable
Bitrate : 127 Kbps
Minimum bit rate : 128 Kbps
Kanäle : 2 Kanäle
Samplingrate : 48,0 KHz
Auflösung : 16 bits
Stream size : 20,8 MiB (8)
Alignment : Aligned on interleaves
Interleave, duration : 24 ms (0,60 video frame)
Interleave, preload duration : 493 ms
verwendete Encoder-Bibliothek : LAME3.96r
Kodierungseinstellungen : ABR





Vor der Küste Japans steigt eines Tages eine riesige schwarze Säule aus dem Meer. Ein roter und ein weißer Drache verlassen diese und vernichten sich gegenseitig im anschließenden Kampf. Zwölf Jahre nach diesem so genannten "Tag der Konjunktion"machen sich die Zwillinge Ay und Yu auf, ihre Eltern in dem geheimnisvollen "Wunderland" zu suchen, dessen Portal sich bei der Konjunktion öffnete. Mit einer Phantom-U-Bahn überwinden sie die Dimensionsbrücke. Doch bevor sie ihre Eltern finden, müssen sie zahlreiche fantastische Abenteuer bestehen.

related torrents

Torrent name

health leech seeds Size
 

comments (0)

Main Menu