Animation

FERNGULLY THE LAST RAIN [email protected] DVDRIP[ENG]

  • Download 5x Faster
  • Download torrent
  • Direct Download
  • Rate this torrent +  |  -

Torrent info

Name:FERNGULLY THE LAST RAIN [email protected] DVDRIP[ENG]

Total Size: 696.80 MB

Magnet: Magnet Link

Seeds: 0

Leechers: 0

Stream: Watch Online @ Movie4u

Last Updated: 2014-10-02 14:21:14 (Update Now)

Torrent added: 2009-08-22 13:29:35



VPN For Torrents

Torrent Files List


Torrent downloaded from Demonoid.com.txt (Size: 696.80 MB) (Files: 3)

 Torrent downloaded from Demonoid.com.txt

0.05 KB

 Noname.jpg

46.77 KB

 FERNGULLY

  TITLE01.avi

696.76 MB
 

Announce URL:

Torrent description

Description

Magic and adventure await in FernGully, a spectacular rainforest where a bat named Batty, whose radar has gone haywire, joins together with Crysta, Pips and the Beetle Boys to save their marvellous world from the evil Hexxus. Ignoring the warnings of her friends, Crysta, the curious tree fairy, explores the world beyond FernGully. She discovers Zak, a real live human who is helping to demolish the rainforest. Once Zak sees the beauty and magic of FernGully, he vows to save it. But it may be too late. The diabolical Hexxus is on the loose and intent on destroying all of FernGully. This animated feature rocks with an original score performed by Sheena Easton, Raffi, Tone-Loc and others.


Format : AVI
Format/Info : Audio Video Interleave
File size : 697 MiB
Duration : 1h 12mn
Overall bit rate : 1 339 Kbps

Video
Format : MPEG-4 Visual
Format profile : [email protected]
Format settings, BVOP : No
Format settings, QPel : No
Format settings, GMC : No warppoints
Format settings, Matrix : Default
Codec ID : XVID
Codec ID/Hint : XviD
Duration : 1h 12mn
Bit rate : 1 198 Kbps
Width : 640 pixels
Height : 360 pixels
Display aspect ratio : 16/9
Frame rate : 25.000 fps
Resolution : 24 bits
Colorimetry : 4:2:0
Scan type : Progressive
Bits/(Pixel*Frame) : 0.208
Stream size : 624 MiB (90%)
Writing library : Magic0432

Audio
Format : MPEG Audio
Format version : Version 1
Format profile : Layer 3
Codec ID : 55
Codec ID/Hint : MP3
Duration : 1h 12mn
Bit rate mode : Constant
Bit rate : 128 Kbps
Channel(s) : 2 channels
Sampling rate : 44.1 KHz
Resolution : 16 bits
Stream size : 66.6 MiB (10%)
Alignment : Aligned on interleaves
Interleave, duration : 26 ms (0.65 video frame)
Writing library : LAME3.97

related torrents

Torrent name

health leech seeds Size
 


comments (0)

Main Menu