Animation

Delgo AC3 5,1 DVDRip[Eng]2008

  • Download 5x Faster
  • Download torrent
  • Direct Download
  • Rate this torrent +  |  -
Delgo AC3 5,1 DVDRip[Eng]2008

Free and Direct Download with Usenet.nl 300GB+ free


Torrent info

Name:Delgo AC3 5,1 DVDRip[Eng]2008

Total Size: 1.36 GB

Magnet: Magnet Link

Seeds: 10

Leechers: 10

Stream: Watch Online @ Movie4u

Last Updated: 2010-11-30 17:19:44 (Update Now)

Torrent added: 2009-08-22 13:12:37





Torrent Files List


Delgo-AC3-5,1-DVDRip[Eng]2008.txt (Size: 1.36 GB) (Files: 3)

 Delgo-AC3-5,1-DVDRip[Eng]2008.txt

2.96 KB

 Torrent downloaded from Demonoid.com.txt

0.05 KB

 Delgo-AC3-5,1-DVDRip[Eng]2008.avi

1.36 GB
 

Announce URL: http://inferno.demonoid.com:3417/announce

Torrent description

http://www.imdb.com/title/tt0361500/

http://www.delgo.com/

User Rating:3.9/10 - 602 votes

Animation,Adventure,Comedy,Fantasy,Romance

Directors:Marc F. Adler/Jason Maurer

With the voices of:
Freddie Prinze Jr. ... Delgo (voice)
Malcolm McDowell ... Raius (voice)
Chris Kattan ... Filo (voice)
Jennifer Love Hewitt ... Princess Kyla (voice)

And others.

Plot:
In an exotic divided land, Delgo, an adventurous dreamer but naive teenager, must rally his group of troubled youth and some unlikely friends to protect
their world from conflict between the terrestrial Lockni people, who harness the mysteries of the land. And the winged Nohrin people, who rule the skies.
They live - segregated - in an uneasy peace until Delgo was framed for a crime he did not commit. After enlisting the help of a unlikely friend to escape
a Nohri prison, Delgo discovers Imhoff is in danger so he must unite the two races against a common foe....

Info:

General
Complete name : Delgo-AC3-5,1-DVDRip[Eng]2008.avi
Format : AVI
Format/Info : Audio Video Interleave
File size : 1.36 GiB
Duration : 1h 29mn
Overall bit rate : 2 182 Kbps
Writing application : VirtualDubMod 1.5.4.1 (build 2178/release)
Writing library : VirtualDubMod build 2178/release

Video
Format : MPEG-4 Visual
Format profile : [email protected]
Format settings, BVOP : No
Format settings, QPel : No
Format settings, GMC : No warppoints
Format settings, Matrix : Default
Codec ID : XVID
Codec ID/Hint : XviD
Duration : 1h 29mn
Bit rate : 1 725 Kbps
Width : 576 pixels
Height : 320 pixels
Display aspect ratio : 16/9
Frame rate : 23.976 fps
Resolution : 24 bits
Colorimetry : 4:2:0
Scan type : Progressive
Bits/(Pixel*Frame) : 0.390
Stream size : 1.08 GiB (79%)
Writing library : XviD 1.1.2 (UTC 2006-11-01)

Audio
Format : AC-3
Format/Info : Audio Coding 3
Codec ID : 2000
Duration : 1h 29mn
Bit rate mode : Constant
Bit rate : 448 Kbps
Channel(s) : 6 channels
Channel positions : Front: L C R, Surround: L R, LFE
Sampling rate : 48.0 KHz
Stream size : 286 MiB (21%)
Alignment : Split accross interleaves
Interleave, duration : 42 ms (1.00 video frame)
Interleave, preload duration : 500 ms

Enjoy....

related torrents

Torrent name

health leech seeds Size
 

comments (0)

Main Menu