Animation

Corpse Bride[Tim Burton][H33T][ RICO]

  • Download 5x Faster
  • Download torrent
  • Direct Download
  • Rate this torrent +  |  -
Corpse Bride[Tim Burton][H33T][ RICO]

Anonymous and Free Direct Download


Torrent info

Name:Corpse Bride[Tim Burton][H33T][ RICO]

Total Size: 699.54 MB

Magnet: Magnet Link

Seeds: 25

Leechers: 4

Stream: Watch Online @ Movie4u

Last Updated: 0000-00-00 00:00:00 (Update Now)

Torrent added: 2009-08-22 13:08:57



VPN For Torrents

Torrent Files List


tracked_by_h33t_com.txt (Size: 699.54 MB) (Files: 3)

 tracked_by_h33t_com.txt

0.02 KB

 Tim.Burtons.Corpse.Bride[2005]DvDrip[Eng]-RICO.avi

699.47 MB

 corpse_bride.jpg

76.49 KB
 

Announce URL: http://www.h33t.com:3310/announce

Torrent description

Corpse Bride[Tim Burton][H33T][ RICO] preview 0
General
Complete name : G:\Movies\Corpse Bride[Tim-Burton]-RICO\Tim.Burtons.Corpse.Bride[2005]DvDrip[Eng]-RICO.avi
Format : AVI
Format/Info : Audio Video Interleave
File size : 699 MiB
Duration : 1h 17mn
Overall bit rate : 1 267 Kbps
Writing application : VirtualDubMod 1.5.10.1 (build 2366/release)
Writing library : VirtualDubMod build 2366/release

Video
Format : MPEG-4 Visual
Format profile : Streaming Video@L1
Format settings, BVOP : Yes
Format settings, QPel : No
Format settings, GMC : No warppoints
Format settings, Matrix : Default
Codec ID : DX50
Codec ID/Hint : DivX 5
Duration : 1h 17mn
Bit rate : 1 066 Kbps
Width : 572 pixels
Height : 312 pixels
Display aspect ratio : 16/9
Frame rate : 23.976 fps
Resolution : 24 bits
Colorimetry : 4:2:0
Scan type : Progressive
Bits/(Pixel*Frame) : 0.249
Stream size : 588 MiB (84%)
Writing library : XviD 1.0.3 (UTC 2004-12-20)

Audio
Format : AC-3
Format/Info : Audio Coding 3
Codec ID : 2000
Duration : 1h 17mn
Bit rate mode : Constant
Bit rate : 192 Kbps
Channel(s) : 2 channels
Channel positions : L R
Sampling rate : 48.0 KHz
Video delay : 9ms
Stream size : 106 MiB (15%)
Alignment : Split accross interleaves
Interleave, duration : 42 ms (1.00 video frame)
Interleave, preload duration : 500 ms

related torrents

Torrent name

health leech seeds Size
 


comments (0)

Main Menu