Animation

BOB THE BUILDER [LIVE][DVDRIP][ENG] KIDZCORNER&J T R

  • Download 5x Faster
  • Download torrent
  • Direct Download
  • Rate this torrent +  |  -
BOB THE BUILDER [LIVE][DVDRIP][ENG] KIDZCORNER&J T R

Anonymous and Free Direct Download 300GB+


Torrent info

Name:BOB THE BUILDER [LIVE][DVDRIP][ENG] KIDZCORNER&J T R

Total Size: 628.29 MB

Magnet: Magnet Link

Seeds: 0

Leechers: 3

Stream: Watch Online @ Movie4u

Last Updated: 2016-12-03 10:42:24 (Update Now)

Torrent added: 2009-08-22 12:55:46



VPN For Torrents

Torrent Files List


Tracked by moviesb4time.biz.txt (Size: 628.29 MB) (Files: 5)

 Tracked by moviesb4time.biz.txt

1.35 KB

 Torrent downloaded from Demonoid.com.txt

0.05 KB

 485124_DV_L_F.JPG

25.97 KB

 485124_DV_L_B.JPG

40.45 KB

 BOBLIVE

  TITLE02.avi

628.22 MB
 

tracker

leech seeds
 

Torrent description

Hang onto your hard hats! You're about to enjoy Bob the Builder's first ever live arena tour!
Mr. Bentley has asked Bob to turn some waste ground into a fun place to hold the town's jamboree, which takes place the following day. They'd better get to work! Can Bob fix it? Yes he can! And can you help? Yes you can! By singing and dancing along, by hammering, sawing, and telling Spud how to stay out of trouble!
Enjoy the excitement of Bob, Wendy and their friends singing and dancing their way through a fun-packed, larger-than-life adventure in front of your very eyes. There are ten fantastic songs including four brand new tracks, and of course Bob's two number-one-hit singles, "Can we fix it?" and "Mambo No. 5."
So, come and join Bob and his team in this musical extravaganza that can now be enjoyed over and over again!


General
Complete name : C:\Users\joker\Documents\BOB THE BUILDER-[LIVE][DVDRIP][ENG]-KIDZCORNER&J.T.R\BOBLIVE\TITLE02.avi
Format : AVI
Format/Info : Audio Video Interleave
File size : 628 MiB
Duration : 1h 5mn
Overall bit rate : 1 340 Kbps

Video
Format : MPEG-4 Visual
Format profile : [email protected]
Format settings, BVOP : No
Format settings, QPel : No
Format settings, GMC : No warppoints
Format settings, Matrix : Default
Codec ID : XVID
Codec ID/Hint : XviD
Duration : 1h 5mn
Bit rate : 1 199 Kbps
Width : 640 pixels
Height : 480 pixels
Display aspect ratio : 4/3
Frame rate : 25.000 fps
Resolution : 24 bits
Colorimetry : 4:2:0
Scan type : Progressive
Bits/(Pixel*Frame) : 0.156
Stream size : 562 MiB (90%)
Writing library : Magic0432

Audio
Format : MPEG Audio
Format version : Version 1
Format profile : Layer 3
Codec ID : 55
Codec ID/Hint : MP3
Duration : 1h 5mn
Bit rate mode : Constant
Bit rate : 128 Kbps
Channel(s) : 2 channels
Sampling rate : 44.1 KHz
Resolution : 16 bits
Stream size : 60.0 MiB (10%)
Alignment : Aligned on interleaves
Interleave, duration : 26 ms (0.65 video frame)



related torrents

Torrent name

health leech seeds Size
 


comments (0)

Main Menu