Animation

Barbie as Rapunzel cartoons4us org

  • Download 5x Faster
  • Download torrent
  • Direct Download
  • Rate this torrent +  |  -
Barbie as Rapunzel cartoons4us org

Anonymous and Free Direct Download 300GB+


Torrent info

Name:Barbie as Rapunzel cartoons4us org

Total Size: 1.26 GB

Magnet: Magnet Link

Seeds: 0

Leechers: 0

Stream: Watch Online @ Movie4u

Last Updated: 0000-00-00 00:00:00 (Update Now)

Torrent added: 2009-08-22 12:50:06



VPN For Torrents

Torrent Files List


Barbie as Rapunzel.sfv (Size: 1.26 GB) (Files: 93)

 Barbie as Rapunzel.sfv

11.85 KB

 Barbie as Rapunzel.rar

14.31 MB

 Barbie as Rapunzel.r89

5.04 MB

 Barbie as Rapunzel.r88

14.31 MB

 Barbie as Rapunzel.r87

14.31 MB

 Barbie as Rapunzel.r86

14.31 MB

 Barbie as Rapunzel.r85

14.31 MB

 Barbie as Rapunzel.r84

14.31 MB

 Barbie as Rapunzel.r83

14.31 MB

 Barbie as Rapunzel.r82

14.31 MB

 Barbie as Rapunzel.r81

14.31 MB

 Barbie as Rapunzel.r80

14.31 MB

 Barbie as Rapunzel.r79

14.31 MB

 Barbie as Rapunzel.r78

14.31 MB

 Barbie as Rapunzel.r77

14.31 MB

 Barbie as Rapunzel.r76

14.31 MB

 Barbie as Rapunzel.r75

14.31 MB

 Barbie as Rapunzel.r74

14.31 MB

 Barbie as Rapunzel.r73

14.31 MB

 Barbie as Rapunzel.r72

14.31 MB

 Barbie as Rapunzel.r71

14.31 MB

 Barbie as Rapunzel.r70

14.31 MB

 Barbie as Rapunzel.r69

14.31 MB

 Barbie as Rapunzel.r68

14.31 MB

 Barbie as Rapunzel.r67

14.31 MB

 Barbie as Rapunzel.r66

14.31 MB

 Barbie as Rapunzel.r65

14.31 MB

 Barbie as Rapunzel.r64

14.31 MB

 Barbie as Rapunzel.r63

14.31 MB

 Barbie as Rapunzel.r62

14.31 MB

 Barbie as Rapunzel.r61

14.31 MB

 Barbie as Rapunzel.r60

14.31 MB

 Barbie as Rapunzel.r59

14.31 MB

 Barbie as Rapunzel.r58

14.31 MB

 Barbie as Rapunzel.r57

14.31 MB

 Barbie as Rapunzel.r56

14.31 MB

 Barbie as Rapunzel.r55

14.31 MB

 Barbie as Rapunzel.r54

14.31 MB

 Barbie as Rapunzel.r53

14.31 MB

 Barbie as Rapunzel.r52

14.31 MB

 Barbie as Rapunzel.r51

14.31 MB

 Barbie as Rapunzel.r50

14.31 MB

 Barbie as Rapunzel.r49

14.31 MB

 Barbie as Rapunzel.r48

14.31 MB

 Barbie as Rapunzel.r47

14.31 MB

 Barbie as Rapunzel.r46

14.31 MB

 Barbie as Rapunzel.r45

14.31 MB

 Barbie as Rapunzel.r44

14.31 MB

 Barbie as Rapunzel.r43

14.31 MB

 Barbie as Rapunzel.r42

14.31 MB

 Barbie as Rapunzel.r41

14.31 MB

 Barbie as Rapunzel.r40

14.31 MB

 Barbie as Rapunzel.r39

14.31 MB

 Barbie as Rapunzel.r38

14.31 MB

 Barbie as Rapunzel.r37

14.31 MB

 Barbie as Rapunzel.r36

14.31 MB

 Barbie as Rapunzel.r35

14.31 MB

 Barbie as Rapunzel.r34

14.31 MB

 Barbie as Rapunzel.r33

14.31 MB

 Barbie as Rapunzel.r32

14.31 MB

 Barbie as Rapunzel.r31

14.31 MB

 Barbie as Rapunzel.r30

14.31 MB

 Barbie as Rapunzel.r29

14.31 MB

 Barbie as Rapunzel.r28

14.31 MB

 Barbie as Rapunzel.r27

14.31 MB

 Barbie as Rapunzel.r26

14.31 MB

 Barbie as Rapunzel.r25

14.31 MB

 Barbie as Rapunzel.r24

14.31 MB

 Barbie as Rapunzel.r23

14.31 MB

 Barbie as Rapunzel.r22

14.31 MB

 Barbie as Rapunzel.r21

14.31 MB

 Barbie as Rapunzel.r20

14.31 MB

 Barbie as Rapunzel.r19

14.31 MB

 Barbie as Rapunzel.r18

14.31 MB

 Barbie as Rapunzel.r17

14.31 MB

 Barbie as Rapunzel.r16

14.31 MB

 Barbie as Rapunzel.r15

14.31 MB

 Barbie as Rapunzel.r14

14.31 MB

 Barbie as Rapunzel.r13

14.31 MB

 Barbie as Rapunzel.r12

14.31 MB

 Barbie as Rapunzel.r11

14.31 MB

 Barbie as Rapunzel.r10

14.31 MB

 Barbie as Rapunzel.r09

14.31 MB

 Barbie as Rapunzel.r08

14.31 MB

 Barbie as Rapunzel.r07

14.31 MB

 Barbie as Rapunzel.r06

14.31 MB

 Barbie as Rapunzel.r05

14.31 MB

 Barbie as Rapunzel.r04

14.31 MB

 Barbie as Rapunzel.r03

14.31 MB

 Barbie as Rapunzel.r02

14.31 MB

 Barbie as Rapunzel.r01

14.31 MB

 Barbie as Rapunzel.r00

14.31 MB

 Barbie as Rapunzel.nfo

5.64 KB
 

Announce URL: http://cartoons4us.org/announce.php?passkey=tssespecialtorrentv1byxamsep2007

Torrent description

General
Complete name : Barbie as Rapunzel.avi
Format : AVI
Format/Info : Audio Video Interleave
File size : 1.26 GiB
Duration : 1h 23mn
Overall bit rate : 2 160 Kbps
Writing library : VirtualDub build 30091/release

Video
Format : MPEG-4 Visual
Format profile : Streaming [email protected]
Format settings, BVOP : Yes
Format settings, QPel : No
Format settings, GMC : No warppoints
Format settings, Matrix : Default
Muxing mode : Packed bitstream
Codec ID : XVID
Codec ID/Hint : XviD
Duration : 1h 23mn
Bit rate : 2 021 Kbps
Width : 720 pixels
Height : 480 pixels
Display aspect ratio : 4/3
Frame rate : 29.970 fps
Standard : NTSC
Resolution : 24 bits
Colorimetry : 4:2:0
Scan type : Interlaced
Scan order : Bottom Field First
Bits/(Pixel*Frame) : 0.195
Stream size : 1.18 GiB (94%)
Writing library : XviD 1.2.0.dev47 (UTC 2006-11-01)

Audio
Format : MPEG Audio
Format version : Version 1
Format profile : Layer 3
Codec ID : 55
Codec ID/Hint : MP3
Duration : 1h 23mn
Bit rate mode : Constant
Bit rate : 128 Kbps
Channel(s) : 2 channels
Sampling rate : 48.0 KHz
Resolution : 16 bits
Stream size : 76.6 MiB (6%)
Alignment : Split accross interleaves
Interleave, duration : 33 ms (1.00 video frame)
Interleave, preload duration : 500 ms
Writing library : LAME3.98

Barbie as Rapunzel (2002)

Barbie is an artist who paints her way out of a castle to save her prince.

Director: Owen Hurley
Writers: Elana Lesser (writer)
Cliff Ruby (writer)

Release Date: October 2002 (USA)
Genre: Animation | Family


Cast
Kelly Sheridan ... Barbie / Rapunzel (voice)
Anjelica Huston ... Gothel (voice)
Cree Summer ... Penelope (voice)
Ian James Corlett ... Hobie / Palace Guard (voice)
Mark Hildreth ... Stefan (voice)
David Kaye ... Hugo / General (voice)
Peter Kelamis ... Otto / Skinny Swordsman (voice)
Russell Roberts ... King Frederick (voice)
Christopher Gaze ... King Wilhelm (voice)
Terry Klassen ... Fat Swordsman / Baker (voice)
Chantal Strand ... Shelly / Katrina (voice)
Danny McKinnon ... Tommy (voice)
Britt McKillip ... Melody (voice) (as Britt McKillop)
Jocelyne Loewen ... Lorena (voice) (as Jocelyn Leowen)
Dale Wilson ... Silversmith (voice)

Runtime: 83 min
Country: USA
Language: English
Color: Color

related torrents

Torrent name

health leech seeds Size
 


comments (0)

Main Menu