Animation

Alice, [DivX Eng Mp3 Sub Ita][ scambioetico org]

  • Download 5x Faster
  • Download torrent
  • Direct Download
  • Rate this torrent +  |  -
Alice, [DivX Eng Mp3 Sub Ita][ scambioetico org]

Free and Direct Download with Usenet.nl 300GB+ free


Torrent info

Name:Alice, [DivX Eng Mp3 Sub Ita][ scambioetico org]

Total Size: 700.15 MB

Magnet: Magnet Link

Seeds: 0

Leechers: 0

Stream: Watch Online @ Movie4u

Last Updated: 2016-02-03 04:38:32 (Update Now)

Torrent added: 2009-08-22 12:43:19





Torrent Files List


Alice.srt.srt (Size: 700.15 MB) (Files: 2)

 Alice.srt.srt

12.97 KB

 Alice.avi

700.13 MB
 

tracker

leech seeds
 

Torrent description

Alice, [DivX - Eng Mp3 - Sub Ita][www.tntvillage.scambioetico.org]

Scheda del film

Titolo:Alice
Titolo originale:Neco Z Alenky
Nazionalità:Cecoslovacchia/GB/RFT/Svizzera
Anno:1987
Genere:Animazione
Regia:Jan Svankmajer
Produzione:Channel Four, Condor, Hessischer Rundfunk, SRG
Data di uscita:Al cinema nel Gennaio 1988

Cast

Kristyna Kohoutova

Scheda tecnica (Mediainfo)

General
Complete name : Alice.avi
Format : AVI
Format/Info : Audio Video Interleave
File size : 700 MiB
Duration : 1h 33mn
Overall bit rate : 1 046 Kbps
Writing application : Nandub v1.0rc2
Writing library : Nandub build 1852/release

Video
Format : MPEG-4 Visual
Codec ID : DIV3
Codec ID/Hint : DivX 3 Low
Duration : 1h 33mn
Bit rate : 935 Kbps
Width : 512 pixels
Height : 384 pixels
Display aspect ratio : 4/3
Frame rate : 23.976 fps
Resolution : 24 bits
Bits/(Pixel*Frame) : 0.198
Stream size : 626 MiB (89%)

Audio
Format : MPEG Audio
Format version : Version 1
Format profile : Layer 3
Codec ID : 55
Codec ID/Hint : MP3
Duration : 1h 33mn
Bit rate mode : Variable
Bit rate : 98.2 Kbps
Minimum bit rate : 96.0 Kbps
Channel(s) : 1 channel
Sampling rate : 48.0 KHz
Resolution : 16 bits
Stream size : 65.8 MiB (9%)
Alignment : Aligned on interleaves
Interleave, duration : 24 ms (0.58 video frame)
Interleave, preload duration : 476 ms
Writing library : LAME3.91
Encoding settings : VBR (rh)

related torrents

Torrent name

health leech seeds Size
 

comments (0)

Main Menu