Adventure

White Squall (1996)

  • Download 5x Faster
  • Download torrent
  • Direct Download
  • Rate this torrent +  |  -
White Squall (1996)

Free and Direct Download with Usenet.nl 300GB+ free


Torrent info

Name:White Squall (1996)

Total Size: 1.36 GB

Magnet: Magnet Link

Seeds: 22

Leechers: 2

Stream: Watch Online @ Movie4u

Last Updated: 0000-00-00 00:00:00 (Update Now)

Torrent added: 2009-08-22 12:24:35





Torrent Files List


Torrent downloaded from Demonoid.com.txt (Size: 1.36 GB) (Files: 3)

 Torrent downloaded from Demonoid.com.txt

0.05 KB

 cd 1.avi

697.31 MB

 cd 2.avi

699.50 MB
 

Announce URL: http://inferno.demonoid.com:3411/announce

Torrent description

White Squall (1996)
DVDrip

Fantastic, true story about a group of young boys being taught discipline as crew on a school sailing ship, when it meets unexpected challenges.

With Jeff Bridges

One of the first films for many young actors who later had a successful career:

Scott Wolf (then 28)
Ryan Phillippe (then 22)
Ethan Embry (then 18)
Jeremy Sisto (then 22)

Widescreen 560x240, great stereo sound.
Burn tested, runs well in my standalone DivX player.

Format/Info : Audio Video Interleave
File size : 697 MiB
Overal bit rate : 1715 Kbps
Writing application : Nandub v1.0rc2
Writing library : Nandub build 1853/release

Video
Format : MPEG-4 Visual
Format profile : Streaming [email protected]
Format settings, BVOP : Yes
Format settings, QPel : No
Format settings, GMC : No warppoints
Format settings, Matrix : Default
Muxing mode : Packet Bitstream
Codec ID : XVID
Codec ID/Hint : XviD
Duration : 56mn 51s
Bit rate : 1595 Kbps
Width : 560 pixels
Height : 240 pixels
Display aspect ratio : 2.35
Frame rate : 23.976 fps
Resolution : 8 bits
Colorimetry : 4:2:0
Scan type : Progressive
Bits/(Pixel*Frame) : 0.495
Stream size : 649 MiB
Writing library : XviD 1.1.2 (UTC 2006-11-01)

Audio
Format : MPEG Audio
Format version : Version 1
Format profile : Layer 3
Codec ID : 55
Codec ID/Hint : MP3
Bit rate mode : Variable
Bit rate : 109 Kbps
Minimum bit rate : 32.0 Kbps
Channel(s) : 2 channels
Sampling rate : 48.0 KHz
Resolution : 16 bits
Stream size : 43.3 MiB
Writing library : LAME3.97b
Encoding settings : VBR (mtrh)

related torrents

Torrent name

health leech seeds Size

White Squall (1996)

1 1 2.00 GB 0
 

comments (0)

Main Menu