Adventure

The Seeker The Dark Is Rising [2007][DvDrip] Demonuk[NIKONRG]

  • Download 5x Faster
  • Download torrent
  • Direct Download
  • Rate this torrent +  |  -
The Seeker The Dark Is Rising [2007][DvDrip] Demonuk[NIKONRG]

Anonymous and Free Direct Download 300GB+


Torrent info

Name:The Seeker The Dark Is Rising [2007][DvDrip] Demonuk[NIKONRG]

Total Size: 700.01 MB

Magnet: Magnet Link

Seeds: 2

Leechers: 2

Stream: Watch Online @ Movie4u

Last Updated: 2010-09-22 08:52:05 (Update Now)

Torrent added: 2009-08-22 12:13:44



VPN For Torrents

Torrent Files List


Torrent downloaded from Demonoid.com.txt (Size: 700.01 MB) (Files: 3)

 Torrent downloaded from Demonoid.com.txt

0.05 KB

 The Seeker The Dark Is Rising.info.txt

1.24 KB

 The Seeker The Dark Is Rising-[1988][DvDrip]-Demonuk[NIKONRG].avi

700.01 MB
 

Announce URL: http://inferno.demonoid.com:3393/announce

Torrent description

The Seeker: The Dark Is Rising-[2007][DvDrip]-Demonuk[NIKONRG]
__________________
MOVIE INFORMATION
__________________
TITLE.............:The Seeker: The Dark Is Rising
DIRECTOR..........:David L. Cunningham
YEAR..............: 2007
RUNTIME...........:1h 34mn
GENRE.............: Adventure | Drama | Fantasy | Thriller
FORMAT.............:AVI
Format/Info.........:Audio Video Interleave
File size..........:700 MiB
Duration..........:1h 34mn
Overal bit rate....871 Kbps
SOURCE............:PAL DVD
SIZE..............:700mb
IMDB..............: http://www.imdb.com/title/tt0484562/
USER RATING............: 4.6/10 (4,481 votes)
__________________
VIDEO INFORMATION
__________________
Format: MPEG-4 Visual
Format profile: Streaming [email protected]
Format settings, BVOP: Yes
Format settings, QPel: No
Format settings, GMC: No warppoints
Format settings, Matrix: Custom
Codec ID: XVID
Codec ID/Hint: XviD
Duration: 1h 34mn
Bit rate: 902 Kbps
Width: 656 pixels
Height: 288 pixels
Display aspect ratio: 2.25
Frame rate: 25.000 fps
Resolution: 8 bits
Colorimetry: 4:2:0
Scan type: Progressive
Bits/(Pixel*Frame):0.191
Stream size: 612 MiB (87%)

__________________
AUDIO INFORMATION
__________________
Format: MPEG Audio
Format version: Version 1
Format profile: Layer 3
Codec ID: 55
Codec ID/Hint: MP3
Duration: 1h 34mn
Bit rate mode: Variable
Bit rate: 117 Kbps
Minimum bit rate: 128 Kbps
Channel(s): 2 channels
Sampling rate: 48.0 KHz
Resolution: 16 bits
Stream size: 79.4 MiB (11%)
Writing library: LAME3.97
Encoding settings: ABR

__________________
MAIN CAST
__________________
Alexander Ludwig... Will Stanton / Tom Stanton
Christopher Eccleston ... The Rider
Ian McShane... Merriman Lyon
Frances Conroy... Miss Greythorne
James Cosmo... Dawson
Jim Piddock... Old George


__________________
PLOT OUTLINE
__________________
The film tells the story of Will Stanton, a young man who learns he is the last of a group of warriors
who have dedicated their lives to fighting the forces of the Dark. Traveling back and forth through time,
Will discovers a series of clues which lead him into a showdown with forces of unimaginable power.
With the Dark once again rising, the future of the world rests in Will's hands.
__________________
Info hash:
Tracker announce: http://inferno.demonoid.com:3392/announce
Tracker announce: http://open.tracker.thepiratebay.org:80/announce
Tracker Scrape: http://inferno.demonoid.com:3392/scrape

__________________
Contents of download:

The Seeker: The Dark Is Rising-[2007][DvDrip]-Demonuk[NIKONRG].avi (700MB)
The Seeker: The Dark Is Rising.info.txt (1.08Kb)
Torrent downloaded from Demonoid.com.txt (47bytes)
___________________________________________________________________
> For Detailed Information on New Releases and Popular Request Click Here


^>>>>>>>>>>>>>>>>>>>>>>>>>>>>>>>>>>>>>>>>>>>>>>>>>>>>>>>>>>>>>>>>>>.^
^......................................................................................................@....................@......@.@@@.@...............^
^............@@...........@....@....@.......@...............................................@..................@......@................@...........^
^............@.@..........@...........@......@.......@@@@........ @..@.@.@......@...............@.......@..................@.........^
^............@..@.........@....@....@.....@....@..............@.....@@.........@......@............@........@...................@........^
^............@...@........@....@....@....@....@................@....@.............@.......@........@..........@...................@........^
^............@....@.......@....@....@...@....@..................@...@.............@.........@.....@...........@..................@.........^
^............@.....@......@....@....@@......@....................@..@.............@...........@@..............@@@@@@@............^
^............@......@.....@....@....@@......@....................@..@.............@.........@.....@...........@..............................^
^............@.......@....@....@....@...@....@...................@..@.............@........@.........@........@..............................^
^............@........@...@....@....@....@....@.................@...@.............@......@............@.......@..............................^
^............@.........@..@....@....@.....@....@...............@....@.............@....@................@.....@..............................^
^............@..........@.@....@....@......@....@.............@.....@.............@...@...................@...@..............................^
^............@...........@@....@....@.......@.....@.@.@..@......@.............@..@.....................@..@..............................^
^<<<<<<<<<<<<<<<<<<<<<<<<<<<<<<<<<<<<<<<<<<<<<<<<<<<<<<<<<<<<<<<<<<.^




related torrents

Torrent name

health leech seeds Size
 


comments (0)

Main Menu