Adventure

The Mysteries of Pittsburgh AC3 5,1 DVDRip[Eng]2008

  • Download 5x Faster
  • Download torrent
  • Direct Download
  • Rate this torrent +  |  -

Torrent info

Name:The Mysteries of Pittsburgh AC3 5,1 DVDRip[Eng]2008

Total Size: 1.28 GB

Magnet: Magnet Link

Seeds: 0

Leechers: 2

Stream: Watch Full Movie @ Movie4u

Last Updated: 2017-11-09 21:38:16 (Update Now)

Torrent added: 2009-08-22 12:10:17



VPN For Torrents

Torrent Files List


Torrent downloaded from Demonoid.com.txt (Size: 1.28 GB) (Files: 3)

 Torrent downloaded from Demonoid.com.txt

0.05 KB

 The Mysteries of Pittsburgh-AC3-5,1-DVDRip[Eng]2008.txt

2.50 KB

 The Mysteries of Pittsburgh-AC3-5,1-DVDRip[Eng]2008.avi

1.28 GB
 

Announce URL:

Torrent description

http://www.imdb.com/title/tt0768218/

http://www.mysteriesofpittsburgh.com/

User Rating:5.1/10 - 406 votes

Adventure,Comedy,Drama

Director:Rawson Marshall Thurber

Cast:Jon Foster/Marc Macaulay/Sienna Miller/Peter Sarsgaard, and others.

Plot:
Based on Michael Chabon's novel, the film chronicles the defining summer of a recent college graduate who crosses his gangster father
and explores love, sexuality, and the enigmas surrounding his life and his city...

Info:

General
Complete name : The Mysteries of Pittsburgh-AC3-5,1-DVDRip[Eng]2008.avi
Format : AVI
Format/Info : Audio Video Interleave
File size : 1.28 GiB
Duration : 1h 36mn
Overall bit rate : 1 902 Kbps
Writing application : VirtualDubMod 1.5.4.1 (build 2178/release)
Writing library : VirtualDubMod build 2178/release

Video
Format : MPEG-4 Visual
Format profile : [email protected]
Format settings, BVOP : No
Format settings, QPel : No
Format settings, GMC : No warppoints
Format settings, Matrix : Default
Codec ID : XVID
Codec ID/Hint : XviD
Duration : 1h 36mn
Bit rate : 1 445 Kbps
Width : 608 pixels
Height : 256 pixels
Display aspect ratio : 2.35
Frame rate : 23.976 fps
Resolution : 24 bits
Colorimetry : 4:2:0
Scan type : Progressive
Bits/(Pixel*Frame) : 0.387
Stream size : 997 MiB (76%)
Writing library : XviD 1.1.2 (UTC 2006-11-01)

Audio
Format : AC-3
Format/Info : Audio Coding 3
Codec ID : 2000
Duration : 1h 36mn
Bit rate mode : Constant
Bit rate : 448 Kbps
Channel(s) : 6 channels
Channel positions : Front: L C R, Surround: L R, LFE
Sampling rate : 48.0 KHz
Stream size : 309 MiB (24%)
Alignment : Split accross interleaves
Interleave, duration : 42 ms (1.00 video frame)
Interleave, preload duration : 500 ms

Enjoy....

related torrents

Torrent name

health leech seeds Size
 


comments (0)

Main Menu

 

script data-cfasync="false" src="//d2ghscazvn398x.cloudfront.net/?cshgd=690275">