Adventure

The Missing [2003] DVDRip XviD (AC 3, 5 1)

  • Download 5x Faster
  • Download torrent
  • Direct Download
  • Rate this torrent +  |  -
The Missing [2003] DVDRip XviD (AC 3, 5 1)

Anonymous and free Direct Download 300GB+


Torrent info

Name:The Missing [2003] DVDRip XviD (AC 3, 5 1)

Total Size: 800.58 MB

Magnet: Magnet Link

Seeds: 0

Leechers: 0

Stream: Watch Online @ Movie4u

Last Updated: 2017-05-18 19:20:45 (Update Now)

Torrent added: 2009-08-22 12:09:21



VPN For Torrents

Torrent Files List


The Missing.avi (Size: 800.58 MB) (Files: 1)

 The Missing.avi

800.58 MB
 

Announce URL:

Torrent description

In 19th-century New Mexico, a father (Tommy Lee Jones) comes back home, hoping to reconcile with his adult daughter Maggie (Cate Blanchett). Maggie's daughter is kidnapped, forcing father and estranged daughter to work together to get her back.

--------------------------------------------------------------------------------


General
Complete name : The Missing.avi
Format : AVI
Format/Info : Audio Video Interleave
File size : 801 MiB
Duration : 2h 11mn
Overall bit rate : 852 Kbps
Writing application : VirtualDubMod 1.5.4.1 (build 2178/release)
Writing library : VirtualDubMod build 2178/release

Video
Format : MPEG-4 Visual
Format profile : Streaming [email protected]
Format settings, BVOP : Yes
Format settings, QPel : No
Format settings, GMC : No warppoints
Format settings, Matrix : Custom
Codec ID : XVID
Codec ID/Hint : XviD
Duration : 2h 11mn
Bit rate : 396 Kbps
Width : 544 pixels
Height : 240 pixels
Display aspect ratio : 2.25
Frame rate : 29.970 fps
Resolution : 24 bits
Colorimetry : 4:2:0
Scan type : Progressive
Bits/(Pixel*Frame) : 0.101
Stream size : 372 MiB (46%)
Writing library : XviD 1.2.1 (UTC 2008-12-04)

Audio
Format : AC-3
Format/Info : Audio Coding 3
Codec ID : 2000
Duration : 2h 11mn
Bit rate mode : Constant
Bit rate : 448 Kbps
Channel(s) : 6 channels
Channel positions : Front: L C R, Surround: L R, LFE
Sampling rate : 48.0 KHz
Stream size : 421 MiB (53%)
Alignment : Aligned on interleaves
Interleave, duration : 96 ms (2.88 video frames)
Interleave, preload duration : 96 ms
Language : English



Please help your fellow pirates by seeding after download!

related torrents

Torrent name

health leech seeds Size
 


comments (0)

Main Menu