Adventure

The Kingmaker AC3 5,1 DVDRip[Eng]2005

  • Download 5x Faster
  • Download torrent
  • Direct Download
  • Rate this torrent +  |  -
The Kingmaker AC3 5,1 DVDRip[Eng]2005

Anonymous and free Direct Download 300GB+


Torrent info

Name:The Kingmaker AC3 5,1 DVDRip[Eng]2005

Total Size: 1.39 GB

Magnet: Magnet Link

Seeds: 0

Leechers: 0

Stream: Watch Online @ Movie4u

Last Updated: 0000-00-00 00:00:00 (Update Now)

Torrent added: 2009-08-22 12:05:51



VPN For Torrents

Torrent Files List


Torrent downloaded from Demonoid.com.txt (Size: 1.39 GB) (Files: 5)

 Torrent downloaded from Demonoid.com.txt

0.05 KB

 The Kingmaker-AC3-5,1-DVDRip[Eng]2005.txt

4.30 KB

 The Kingmaker-AC3-5,1-DVDRip[Eng]2005.avi

1.39 GB

 The Kingmaker-AC3-5,1-DVDRip[Eng]2005-Cover.jpg

2.06 MB

 The Kingmaker-AC3-5,1-DVDRip[Eng]2005-CD1.jpg

818.00 KB
 

Announce URL:

Torrent description

http://www.imdb.com/title/tt0410162/

User Rating:3.7/10 - 369 votes

Adventure,Drama

Director:Lek Kitaparaporn

Cast:Gary Stretch/John Rhys-Davies/Cindy Burbridge/Dom Hetrakul, and others.

Plot:
In 1547 Fernando De Gama, a young "Soldier of Fortune" from Portugal, set sail for the Orient in a bid to find the man that murdered his father and,
with luck, like many of his fellow countrymen,to make his fortune. A vicious storm in the Indian ocean almost ended his plans when the ship he was
on sank. The sole survivor, he was washed up on a tropical beach only to be captured by Arab slavers and taken to Ayutthaya in the kingdom of Siam
where he was offered for sale as a slave. He is rescued from slavery when a beautiful young woman Maria, also from Portugal, living in Ayutthaya with
her father, buys him from the Arabs and restores his freedom. Not suprisingly he falls for Maria and Maria him, much to the chagrin of Maria's Father.
As an experienced soldier his services are soon in demand when the King of Siam declares war on a Northern renegade pretender and all of the Portuguese
colony are press-ganged into the service of the King. Predictably, Fernando's experience and gallantry in the heat of battle, gain favour with the King
who commands him to be one of his honoured personal Guard along with a new found Thai friend of tremendous gallantry, Tong. Unbeknownst to the king, his
beautiful but devious wife, Queen Sudachan, plots to kill him and place her lover on the throne. The first attempt by the Queen to rid herself of the
king fails and she enlists the services of Phillippe, who it transpires was the murderer of Fernando's father. He in turn organises another failed attempt
on the Kings life. As trusted guardians of the king, Fernando and Tong discover that Phillippe is involved but is killed during an attempt to arrest him.
They subsequently discover that the perpetrator is the Queen but are to late to save the king who has already succumbed to her poison. The blame for the
kings death is fostered upon Fernando and Tong who are arrested and forced to fight each other to the death for the amusement of Queen Sudachan and her
lover, the new king...

Info:

Cover included.

General
Complete name : The Kingmaker-AC3-5,1-DVDRip[Eng]2005.avi
Format : AVI
Format/Info : Audio Video Interleave
File size : 1.39 GiB
Duration : 1h 28mn
Overall bit rate : 2 250 Kbps
Writing application : VirtualDubMod 1.5.4.1 (build 2178/release)
Writing library : VirtualDubMod build 2178/release

Video
Format : MPEG-4 Visual
Format profile : Streaming [email protected]
Format settings, BVOP : Yes
Format settings, QPel : No
Format settings, GMC : No warppoints
Format settings, Matrix : Default
Muxing mode : Packed bitstream
Codec ID : XVID
Codec ID/Hint : XviD
Duration : 1h 28mn
Bit rate : 1 795 Kbps
Width : 720 pixels
Height : 416 pixels
Display aspect ratio : 16/9
Frame rate : 25.000 fps
Resolution : 24 bits
Colorimetry : 4:2:0
Scan type : Progressive
Bits/(Pixel*Frame) : 0.240
Stream size : 1.11 GiB (80%)
Writing library : XviD 50

Audio
Format : AC-3
Format/Info : Audio Coding 3
Codec ID : 2000
Duration : 1h 28mn
Bit rate mode : Constant
Bit rate : 448 Kbps
Channel(s) : 6 channels
Channel positions : Front: L C R, Surround: L R, LFE
Sampling rate : 48.0 KHz
Stream size : 283 MiB (20%)
Alignment : Split accross interleaves
Interleave, duration : 80 ms (2.00 video frames)
Interleave, preload duration : 500 ms
Language : English

Enjoy...

related torrents

Torrent name

health leech seeds Size
 


comments (0)

Main Menu