Adventure

The Golden Compass 720p Bluray x264 Chakra [

  • Download 5x Faster
  • Download torrent
  • Direct Download
  • Rate this torrent +  |  -
The Golden Compass 720p Bluray x264 Chakra [

Anonymous and Direct Download 300GB+ free


Torrent info

Name:The Golden Compass 720p Bluray x264 Chakra [

Total Size: 4.42 GB

Magnet: Magnet Link

Seeds: 1

Leechers: 2

Stream: Watch Online @ Movie4u

Last Updated: 2010-11-30 17:09:56 (Update Now)

Torrent added: 2009-08-22 11:58:59




Torrent Files List


The Golden Compass [2007] - 720p - Chakra.srt (Size: 4.42 GB) (Files: 98)

 The Golden Compass [2007] - 720p - Chakra.srt

91.95 KB

 ck-goldenc.sfv

2.29 KB

 ck-goldenc.rar

47.68 MB

 ck-goldenc.r92

45.27 MB

 ck-goldenc.r91

47.68 MB

 ck-goldenc.r90

47.68 MB

 ck-goldenc.r89

47.68 MB

 ck-goldenc.r88

47.68 MB

 ck-goldenc.r87

47.68 MB

 ck-goldenc.r86

47.68 MB

 ck-goldenc.r85

47.68 MB

 ck-goldenc.r84

47.68 MB

 ck-goldenc.r83

47.68 MB

 ck-goldenc.r82

47.68 MB

 ck-goldenc.r81

47.68 MB

 ck-goldenc.r80

47.68 MB

 ck-goldenc.r79

47.68 MB

 ck-goldenc.r78

47.68 MB

 ck-goldenc.r77

47.68 MB

 ck-goldenc.r76

47.68 MB

 ck-goldenc.r75

47.68 MB

 ck-goldenc.r74

47.68 MB

 ck-goldenc.r73

47.68 MB

 ck-goldenc.r72

47.68 MB

 ck-goldenc.r71

47.68 MB

 ck-goldenc.r70

47.68 MB

 ck-goldenc.r69

47.68 MB

 ck-goldenc.r68

47.68 MB

 ck-goldenc.r67

47.68 MB

 ck-goldenc.r66

47.68 MB

 ck-goldenc.r65

47.68 MB

 ck-goldenc.r64

47.68 MB

 ck-goldenc.r63

47.68 MB

 ck-goldenc.r62

47.68 MB

 ck-goldenc.r61

47.68 MB

 ck-goldenc.r60

47.68 MB

 ck-goldenc.r59

47.68 MB

 ck-goldenc.r58

47.68 MB

 ck-goldenc.r57

47.68 MB

 ck-goldenc.r56

47.68 MB

 ck-goldenc.r55

47.68 MB

 ck-goldenc.r54

47.68 MB

 ck-goldenc.r53

47.68 MB

 ck-goldenc.r52

47.68 MB

 ck-goldenc.r51

47.68 MB

 ck-goldenc.r50

47.68 MB

 ck-goldenc.r49

47.68 MB

 ck-goldenc.r48

47.68 MB

 ck-goldenc.r47

47.68 MB

 ck-goldenc.r46

47.68 MB

 ck-goldenc.r45

47.68 MB

 ck-goldenc.r44

47.68 MB

 ck-goldenc.r43

47.68 MB

 ck-goldenc.r42

47.68 MB

 ck-goldenc.r41

47.68 MB

 ck-goldenc.r40

47.68 MB

 ck-goldenc.r39

47.68 MB

 ck-goldenc.r38

47.68 MB

 ck-goldenc.r37

47.68 MB

 ck-goldenc.r36

47.68 MB

 ck-goldenc.r35

47.68 MB

 ck-goldenc.r34

47.68 MB

 ck-goldenc.r33

47.68 MB

 ck-goldenc.r32

47.68 MB

 ck-goldenc.r31

47.68 MB

 ck-goldenc.r30

47.68 MB

 ck-goldenc.r29

47.68 MB

 ck-goldenc.r28

47.68 MB

 ck-goldenc.r27

47.68 MB

 ck-goldenc.r26

47.68 MB

 ck-goldenc.r25

47.68 MB

 ck-goldenc.r24

47.68 MB

 ck-goldenc.r23

47.68 MB

 ck-goldenc.r22

47.68 MB

 ck-goldenc.r21

47.68 MB

 ck-goldenc.r20

47.68 MB

 ck-goldenc.r19

47.68 MB

 ck-goldenc.r18

47.68 MB

 ck-goldenc.r17

47.68 MB

 ck-goldenc.r16

47.68 MB

 ck-goldenc.r15

47.68 MB

 ck-goldenc.r14

47.68 MB

 ck-goldenc.r13

47.68 MB

 ck-goldenc.r12

47.68 MB

 ck-goldenc.r11

47.68 MB

 ck-goldenc.r10

47.68 MB

 ck-goldenc.r09

47.68 MB

 ck-goldenc.r08

47.68 MB

 ck-goldenc.r07

47.68 MB

 ck-goldenc.r06

47.68 MB

 ck-goldenc.r05

47.68 MB

 ck-goldenc.r04

47.68 MB

 ck-goldenc.r03

47.68 MB

 ck-goldenc.r02

47.68 MB

 ck-goldenc.r01

47.68 MB

 ck-goldenc.r00

47.68 MB

 ck-goldenc.nfo

4.87 KB

 Sample

  ck-goldenc-sample.mkv

42.49 MB
 

Announce URL: http://tracker.ilovetorrents.com/announce.php

Torrent description

The Golden Compass

theatre date : 12.07.07 (USA)
release date : 04.17.08
store date : 04.29.08
genre : Adventure/Family/Fantasy
runtime : 113 mins
rating : 6.4/10 (27,714 votes)
no. screenings : 3528 (USA)

video : 4884 kbps
audio : 640 kbps AC3
resolution : 1280x528
size : 4479 MB



p l o t s y n o p s i s

In a parallel universe, young Lyra Belacqua journeys
to the far North to save her best friend and other
kidnapped children from terrible experiments by a
mysterious organization

http://www.imdb.com/title/tt0385752/


a d d i t i o n a l n o t e s

Enjoy :)

MediaInfo:

Format : Matroska
File size : 4.37 GiB
Duration : 1h 53mn
Overall bit rate : 5 528 Kbps
Encoded date : UTC 2008-04-17 02:35:38
Writing application : mkvmerge v2.2.0 (Turn It On Again) built on Mar 4 2008 12:58:26
Writing library : libebml v0.7.7 + libmatroska v0.8.1

Video
ID : 1
Format : AVC
Format/Info : Advanced Video Codec
Format profile : [email protected]
Format settings, CABAC : Yes
Format settings, ReFrames : 4 frames
Muxing mode : Container [email protected]
Codec ID : V_MPEG4/ISO/AVC
Duration : 1h 53mn
Bit rate : 4 778 Kbps
Width : 1 280 pixels
Height : 528 pixels
Display aspect ratio : 2.424
Frame rate : 23.976 fps
Resolution : 24 bits
Colorimetry : 4:2:0
Scan type : Progressive
Bits/(Pixel*Frame) : 0.295
Stream size : 3.78 GiB (86)
Language : English

Audio
ID : 2
Format : AC-3
Format/Info : Audio Coding 3
Codec ID : A_AC3
Duration : 1h 53mn
Bit rate mode : Constant
Bit rate : 640 Kbps
Channel(s) : 6 channels
Channel positions : Front: L C R, Surround: L R, LFE
Sampling rate : 48.0 KHz
Stream size : 519 MiB (12)
Language : English

related torrents

Torrent name

health leech seeds Size
 


comments (0)

Main Menu