Adventure

The Golden Compass 2007 DVDRip XviD DTS ViEW

  • Download 5x Faster
  • Download torrent
  • Direct Download
  • Rate this torrent +  |  -
The Golden Compass 2007 DVDRip XviD DTS ViEW

Anonymous and Direct Download 300GB+ free


Torrent info

Name:The Golden Compass 2007 DVDRip XviD DTS ViEW

Total Size: 2.05 GB

Magnet: Magnet Link

Seeds: 0

Leechers: 0

Stream: Watch Online @ Movie4u

Last Updated: 2010-09-18 20:50:11 (Update Now)

Torrent added: 2009-08-22 11:58:58




Torrent Files List


The.Golden.Compass.2007.DVDRip.XviD.DTS-ViEW.nfo (Size: 2.05 GB) (Files: 4)

 The.Golden.Compass.2007.DVDRip.XviD.DTS-ViEW.nfo

1.49 KB

 The.Golden.Compass.2007.DVDRip.XviD.DTS-ViEW.CD3.avi

700.90 MB

 The.Golden.Compass.2007.DVDRip.XviD.DTS-ViEW.CD2.avi

699.87 MB

 The.Golden.Compass.2007.DVDRip.XviD.DTS-ViEW.CD1.avi

698.33 MB
 

Announce URL: http://phantombitz.com/announce.php?passkey=c955c6804bb6c5e89ddef9b048ffc682

Torrent description

General
Complete name : The.Golden.Compass.2007.DVDRip.XviD.DTS-ViEW.CD1.avi
Format : AVI
Format/Info : Audio Video Interleave
File size : 698 MiB
Duration : 38mn 50s
Overall bit rate : 2 514 Kbps
Writing library : VirtualDub build 30586/release
segm :


Video
Format : MPEG-4 Visual
Format profile : Streaming [email protected]
Format settings, BVOP : No
Format settings, QPel : No
Format settings, GMC : No warppoints
Format settings, Matrix : Custom
Codec ID : XVID
Codec ID/Hint : XviD
Duration : 38mn 50s
Bit rate : 1 750 Kbps
Width : 800 pixels
Height : 336 pixels
Display aspect ratio : 2.35
Frame rate : 23.976 fps
Resolution : 24 bits
Colorimetry : 4:2:0
Scan type : Progressive
Bits/(Pixel*Frame) : 0.272
Stream size : 486 MiB (70%)
Writing library : XviD 50


Audio
Format : DTS
Format/Info : Digital Theater Systems
Codec ID : 2001
Codec ID/Info : Digital Theater Systems
Duration : 38mn 50s
Bit rate mode : Constant
Bit rate : 768 Kbps
Channel(s) : 6 channels
Channel positions : Front: L C R, Surround: L R, LFE
Sampling rate : 48.0 KHz
Resolution : 24 bits
Stream size : 210 MiB (30%)
Alignment : Split accross interleaves
Interleave, duration : 42 ms (1.00 video frame)
Interleave, preload duration : 982 ms

related torrents

Torrent name

health leech seeds Size
 


comments (0)

Main Menu