Adventure

PIRATES OF THE CARIBBEAN 2 DEAD MANS [email protected] H 264 RIP

  • Download 5x Faster
  • Download torrent
  • Direct Download
  • Rate this torrent +  |  -

Torrent info

Name:PIRATES OF THE CARIBBEAN 2 DEAD MANS [email protected] H 264 RIP

Total Size: 796.73 MB

Magnet: Magnet Link

Seeds: 0

Leechers: 0

Stream: Watch Online @ Movie4u

Last Updated: 0000-00-00 00:00:00 (Update Now)

Torrent added: 2009-08-22 11:40:59




Torrent Files List


Noname.jpg (Size: 796.73 MB) (Files: 3)

 Noname.jpg

23.17 KB

 Torrent downloaded from Demonoid.com-2.txt

0.05 KB

 DVD PART 2.mp4

796.71 MB
 

Announce URL:

Torrent description

Captain Jack Is Back!

Captain Jack Sparrow (Johnny Depp) is mortified to discover
he owes a blood debt to the legendary Davey Jones, captain of the ghostly Flying Dutchman. With time running out, Jack must find a way out of his debt or else be doomed to eternal damnation.

And as if this weren't enough, his problems prompt the cancellation of the wedding plans of a certain Will Turner (Orlando Bloom) and Elizabeth Swann (Keira Knightley), who are forced to join Jack on another maritime misadventure!

General
Complete name : C:\Users\joker\Documents\PIRATES OF THE CARIBBEAN-2-DEAD MANS [email protected] H.264 RIP\DVD PART 2.mp4
Format : MPEG-4
Format profile : Base Media / Version 2
Codec ID : mp42
File size : 797 MiB
Duration : 2h 24mn
Overall bit rate : 771 Kbps
Encoded date : UTC 2009-03-20 02:24:53
Tagged date : UTC 2009-03-20 07:37:25
Writing application : HandBrake 0.9.3 2008112300

Video
Format : AVC
Format/Info : Advanced Video Codec
Format profile : [email protected]
Format settings, CABAC : Yes
Format settings, ReFrames : 3 frames
Codec ID : avc1
Codec ID/Info : Advanced Video Coding
Duration : 2h 24mn
Bit rate mode : Variable
Bit rate : 607 Kbps
Nominal bit rate : 611 Kbps
Width : 702 pixels
Height : 426 pixels
Display aspect ratio : 2.35
Frame rate mode : Variable
Frame rate : 25.000 fps
Minimum frame rate : 12.500 fps
Maximum frame rate : 89.054 fps
Resolution : 24 bits
Colorimetry : 4:2:0
Scan type : Progressive
Bits/(Pixel*Frame) : 0.081
Stream size : 628 MiB (79%)
Writing library : x264 core 65



Audio
Format : AAC
Format/Info : Advanced Audio Codec
Format version : Version 4
Format profile : LC
Format settings, SBR : No
Codec ID : 40
Duration : 2h 24mn
Bit rate mode : Variable
Bit rate : 160 Kbps
Maximum bit rate : 239 Kbps
Channel(s) : 2 channels
Channel positions : L R
Sampling rate : 48.0 KHz
Resolution : 16 bits
Stream size : 165 MiB (21%)
Language : English
Encoded date : UTC 2009-03-20 02:24:53
Tagged date : UTC 2009-03-20 07:37:21

related torrents

Torrent name

health leech seeds Size
 

comments (0)

Main Menu