Adventure

Nordwand AC3 5,1 DVDRip[Ger]2008

  • Download 5x Faster
  • Download torrent
  • Direct Download
  • Rate this torrent +  |  -
Nordwand AC3 5,1 DVDRip[Ger]2008

Anonymous and Direct Download 300GB+ free


Torrent info

Name:Nordwand AC3 5,1 DVDRip[Ger]2008

Total Size: 1.37 GB

Magnet: Magnet Link

Seeds: 11

Leechers: 9

Stream: Watch Online @ Movie4u

Last Updated: 2011-01-03 16:03:53 (Update Now)

Torrent added: 2009-08-22 11:36:15




Torrent Files List


Torrent downloaded from Demonoid.com.txt (Size: 1.37 GB) (Files: 5)

 Torrent downloaded from Demonoid.com.txt

0.05 KB

 Nordwand-AC3.5,1 -DVDRip[Ger]2008.txt

2.90 KB

 Nordwand-AC3.5,1 -DVDRip[Ger]2008.avi

1.37 GB

 Nordwand-AC3.5,1 -DVDRip[Ger]2008-Front.jpg

2.44 MB

 Nordwand-AC3.5,1 -DVDRip[Ger]2008-CD1.jpg

435.17 KB
 

Announce URL: http://inferno.demonoid.com:3416/announce

Torrent description

http://www.imdb.com/title/tt0844457/

http://www.nordwand-film.de/

North Face (International: English title)

User Rating:7.1/10 - 672 votes

Adventure,Drama,History,Sport

Director:Philipp Stölzl

Cast:Benno Fürmann/Florian Lukas/Johanna Wokalek/Georg Friedrich, and others.

Plot:
The astonishing attempt by two Bavarian climbers to be the first to conquer the north face of the Eiger seemingly equipped with little more than
home-made pitons and any old rope is the subject of director Philipp Stoltz’s superlative drama. The 1936 assault on the 1,800m wall of stone and
ice was seen by a propaganda-obsessed Nazi Germany as a potentially Olympic gold-winning bid to solve “the last problem of the Western Alps”.
Superbly shot and compellingly acted by Benno Fuermann and Florian Lukas, it’s Touching The Void in flat caps and hobnail boots....

Info:

Covers included.

General
Complete name : Nordwand-AC3.5,1 -DVDRip[Ger]2008.avi
Format : AVI
Format/Info : Audio Video Interleave
File size : 1.37 GiB
Duration : 2h 1mn
Overall bit rate : 1 613 Kbps
Writing application : VirtualDubMod 1.5.4.1 (build 2178/release)
Writing library : VirtualDubMod build 2178/release

Video
Format : MPEG-4 Visual
Format profile : Streaming [email protected]
Format settings, BVOP : Yes
Format settings, QPel : No
Format settings, GMC : No warppoints
Format settings, Matrix : Default
Codec ID : XVID
Codec ID/Hint : XviD
Duration : 2h 1mn
Bit rate : 1 155 Kbps
Width : 656 pixels
Height : 272 pixels
Display aspect ratio : 2.412
Frame rate : 25.000 fps
Resolution : 24 bits
Colorimetry : 4:2:0
Scan type : Progressive
Bits/(Pixel*Frame) : 0.259
Stream size : 1 003 MiB (72%)
Writing library : XviD 1.1.2 (UTC 2006-11-01)

Audio
Format : AC-3
Format/Info : Audio Coding 3
Codec ID : 2000
Duration : 2h 1mn
Bit rate mode : Constant
Bit rate : 448 Kbps
Channel(s) : 6 channels
Channel positions : Front: L C R, Surround: L R, LFE
Sampling rate : 48.0 KHz
Stream size : 389 MiB (28%)
Alignment : Split accross interleaves
Interleave, duration : 40 ms (1.00 video frame)
Interleave, preload duration : 500 ms

Enjoy..

related torrents

Torrent name

health leech seeds Size
 


comments (0)

Main Menu