Adventure

NEVER ENDING [email protected] DVDRIP][ENG]

  • Download 5x Faster
  • Download torrent
  • Direct Download
  • Rate this torrent +  |  -

Torrent info

Name:NEVER ENDING [email protected] DVDRIP][ENG]

Total Size: 864.46 MB

Magnet: Magnet Link

Seeds: 0

Leechers: 0

Stream: Watch Online @ Movie4u

Last Updated: 2010-12-17 15:49:17 (Update Now)

Torrent added: 2009-08-22 11:34:57




Torrent Files List


Torrent downloaded from Demonoid.com.txt (Size: 864.46 MB) (Files: 3)

 Torrent downloaded from Demonoid.com.txt

0.05 KB

 TITLE01.avi

864.42 MB

 5375268x.jpg

36.88 KB
 

Announce URL:

Torrent description

A boy who needs a friend finds a world that needs a hero in a land beyond imagination!

Bastian, a lonely schoolboy, alienated from his father and bullied by his classmates, retreats to an attic where he becomes engrossed in a book entitled "The Neverending Story." It is the tale of a magical kingdom named, appropriately, Fantasia, since it is a world born of human fantasies. Fantasia is being destroyed by great storms of Nothingness as mankind loses faith in the powers of imagination and fantasies die. Dangerously ill herself, Fantasia's youthful empress sends a handsome warrior on a quest to find a cure for both her and her kingdom. After encounters with flying dragons, swamp monsters and a vast assortment of other fantastic creatures, the young hero discovers that only a human boy can save Fantasia, at which point Bastian is drawn, literally, into the pages of the story.

General
Complete name : C:\Users\joker\Desktop\NEVER_ENDING_STORY\TITLE01.avi
Format : AVI
Format/Info : Audio Video Interleave
File size : 864 MiB
Duration : 1h 30mn
Overall bit rate : 1 340 Kbps

Video
Format : MPEG-4 Visual
Format profile : [email protected]
Format settings, BVOP : No
Format settings, QPel : No
Format settings, GMC : No warppoints
Format settings, Matrix : Default
Codec ID : XVID
Codec ID/Hint : XviD
Duration : 1h 30mn
Bit rate : 1 199 Kbps
Width : 640 pixels
Height : 360 pixels
Display aspect ratio : 16/9
Frame rate : 25.000 fps
Resolution : 24 bits
Colorimetry : 4:2:0
Scan type : Progressive
Bits/(Pixel*Frame) : 0.208
Stream size : 774 MiB (90%)
Writing library : Magic0432

Audio
Format : MPEG Audio
Format version : Version 1
Format profile : Layer 3
Codec ID : 55
Codec ID/Hint : MP3
Duration : 1h 30mn
Bit rate mode : Constant
Bit rate : 128 Kbps
Channel(s) : 2 channels
Sampling rate : 44.1 KHz
Resolution : 16 bits
Stream size : 82.6 MiB (10%)
Alignment : Aligned on interleaves
Interleave, duration : 26 ms (0.65 video frame)
Writing library : LAME3.97

related torrents

Torrent name

health leech seeds Size

Never ending story

0 0 3.85 GB 0
 

comments (0)

Main Menu