Adventure

Narnia Lion Witch and Wardrobe(2005)Hindi DVDRip XviD ~ Smeet

  • Download 5x Faster
  • Download torrent
  • Direct Download
  • Rate this torrent +  |  -

Torrent info

Name:Narnia Lion Witch and Wardrobe(2005)Hindi DVDRip XviD ~ Smeet

Total Size: 801.16 MB

Magnet: Magnet Link

Seeds: 0

Leechers: 0

Stream: Watch Online @ Movie4u

Last Updated: 0000-00-00 00:00:00 (Update Now)

Torrent added: 2009-08-22 11:34:21



VPN For Torrents

Torrent Files List


smeet.nfo (Size: 801.16 MB) (Files: 2)

 smeet.nfo

6.94 KB

 Narnia - Lion Witch and Wardrobe(2005)Hindi-DVDRip-XviD ~ Smeet.avi

801.15 MB
 

Announce URL:

Torrent description


################## TM
##^^^^^^^^^^^^^^^^####
############## #^^^^^^^^^^^^^^^^^^^##
###### #### #########^^^^^# #^^^^^#########^^^^^#
###### ####### ###########^^^# #^^^^^^^^^^^^^#^^^^^#
####### ####### ############^^## #^^^^^^^^^^^^^#^^^^^#
################################# ############^^^###^^^^^^^^^^^^^#^^^^^#
############################################^#^^#^^^^^^^^^^^^^^^^#^^^^^#
#####################################^^^^^^^^#^^#########^^^#######^^^^#####
####################################^^^^^^^^^##^^^^^^^^^##^^#^^^^^^^^^^^^^^##
####################################^^^^^^^^^^###^^^^^^^^#^^#^^^^^^^^^^^^^^^##
######################### ##########^^^^^####^^##^^^^^^^^#^^#^^^^^^^^^^^^^^^##
####################################^########^^#^#########^^######^^^^^######
#############################################^^#^#^^^^^^^^^^^^^^^#^^^^^#
##############################################^#^#^^^^^^^^^^^^^^^#^^^^^#
##############################################^#^#^^^^^^^^^^^^^^^#^^^^^#
##################################^^^^^^^^^^#^#^^^^^^^^^^^^^^^#^^^^^#
############################################^^^#^##^^^^^^^^^^^^^^#^^^^^#
##############################################^#^^^###^^^^^^^^^^^#^^^^^#
#################################################^^^^#^^^^^^^^^^^#^^^^^#
###############################################^######^^^^^^^^^^^#^^^^^#
###################### ###### ##############^^^^^^^^^^^########^^^^^#
###################### ###### ##############^^##^^^^^^^# #^^^^^^#
###################### ###### ##################^^^^^^^# #^^^^^^#
############## ############### ######^^# ########
############## ############### ###
#############
MEANS QUALITY

=======================================================
= Narnia : Lion Witch and Wardrobe (2005) =
=======================================================

|##############################################################################|
| |
|GENERAL INFORMATION |
|=================== |
|Format : AVI |
|Format/Info : Audio Video Interleave |
|Format profile : OpenDML |
|File size : 801 MiB |
|Duration : 2h 23mn |
|Overall bit rate : 783 Kbps |
|Language : Hindi Source: DVD |
|SUBTITLE : No |
|GENRE : Adventure | Family | Fantasy |
|IMDB LINK : http://www.imdb.com/title/tt0363771/ |
|IMDB RATING : 7.0/10 |
|RIPPER : SMEET |
|##############################################################################|

|##############################################################################|
| |
|Video |
|Format : MPEG-4 Visual |
|Format settings, Matrix : Custom |
|Codec ID : XVID |
|Codec ID/Hint : XviD |
|Duration : 2h 23mn |
|Width : 608 pixels |
|Height : 256 pixels |
|Display aspect ratio : 2.35 |
|Frame rate : 23.976 fps |
|Resolution : 24 bits |
|Colorimetry : 4:2:0 |
|Scan type : Progressive |
|Bits/(Pixel*Frame) : 0.183 |
|Stream size : 699 MiB (87%) |
|Writing library : XviD 1.2.1 (UTC 2008-12-04) rter. |
|##############################################################################|
|Audio |
|Format : MPEG Audio |
|Format version : Version 1 |
|Format profile : Layer 3 |
|Codec ID : 55 |
|Codec ID/Hint : MP3 |
|Duration : 2h 23mn |
|Bit rate mode : Constant |
|Bit rate : 96.0 Kbps |
|Channel(s) : 2 channels |
|Sampling rate : 32.0 KHz |
|Resolution : 16 bits |
|Stream size : 98.2 MiB (12%) |
|Alignment : Aligned on interleaves |
|Interleave, duration : 845 ms (20.27 video frames) |
|Interleave, preload duration : 216 ms |
|Title : narnia~`smeet T83 2_0ch 192Kbps DELAY 0ms |
|Writing library : LAME3.98r |
|Encoding settings : -m j -V 4 -q 2 -lowpass 15.1 -b 96 |
|##############################################################################|
www.AhaShare.Com

related torrents

Torrent name

health leech seeds Size
 


comments (0)

Main Menu