Action

Wanted [2008] DVDRip N!CK [Re Rls]

  • Download 5x Faster
  • Download torrent
  • Direct Download
  • Rate this torrent +  |  -
Wanted [2008] DVDRip N!CK [Re Rls]

Anonymous and Free Direct Download


Torrent info

Name:Wanted [2008] DVDRip N!CK [Re Rls]

Total Size: 0.24 KB

Magnet: Magnet Link

Seeds: 1

Leechers: 1

Stream: Watch Online @ Movie4u

Last Updated: 2010-11-27 20:13:57 (Update Now)

Torrent added: 2009-08-22 11:33:43



VPN For Torrents

Torrent Files List


Read Info.txt (Size: 0.24 KB) (Files: 1)

 Read Info.txt

0.24 KB
 

Announce URL: http://tracker.openbittorrent.com:80/announce

Torrent description

General
Complete name : C:\Wanted [2008] DVDRip - N!CK\Wanted [2008] DVDRip - N!CK.avi
Format : AVI
Format/Info : Audio Video Interleave
File size : 699 MiB
Duration : 1h 45mn
Overal bit rate : 927 Kbps

Video
Format : MPEG-4 Visual
Format profile : Streaming [email protected]
Format settings, BVOP : Yes
Format settings, QPel : No
Format settings, GMC : No warppoints
Format settings, Matrix : Default
Codec ID : XVID
Codec ID/Hint : XviD
Duration : 1h 45mn
Bit rate : 818 Kbps
Width : 640 pixels
Height : 288 pixels
Display aspect ratio : 2.222
Frame rate : 25.000 fps
Resolution : 8 bits
Colorimetry : 4:2:0
Scan type : Progressive
Bits/(Pixel*Frame) : 0.177
Stream size : 617 MiB
Writing library : XviD 50

Audio
Format : MPEG Audio
Format version : Version 1
Format profile : Layer 3
Codec ID : 55
Codec ID/Hint : MP3
Bit rate mode : Constant
Bit rate : 96.0 Kbps
Channel(s) : 2 channels
Sampling rate : 48.0 KHz
Resolution : 16 bits
Stream size : 72.4 MiB

related torrents

Torrent name

health leech seeds Size

Wanted 2008 DVDRip N!CK

11 0 708.55 MB 0

Wanted 2008 Axxo Re Upload

0 4 701.00 MB 0
 


comments (0)

Main Menu