Adventure

LE CHIHUAHUA DE BEVERLEY HILLS [FRENCH] H 264 PAR KIDZCORNER

  • Download 5x Faster
  • Download torrent
  • Direct Download
  • Rate this torrent +  |  -
LE CHIHUAHUA DE BEVERLEY HILLS [FRENCH] H 264 PAR KIDZCORNER

Free and Direct Download with Usenet.nl 300GB+ free


Torrent info

Name:LE CHIHUAHUA DE BEVERLEY HILLS [FRENCH] H 264 PAR KIDZCORNER

Total Size: 900.61 MB

Magnet: Magnet Link

Seeds: 0

Leechers: 0

Stream: Watch Online @ Movie4u

Last Updated: 2010-12-28 03:51:05 (Update Now)

Torrent added: 2009-08-22 11:27:30





Torrent Files List


Torrent downloaded from Demonoid.com.txt (Size: 900.61 MB) (Files: 5)

 Torrent downloaded from Demonoid.com.txt

0.05 KB

 kidzcorner info.txt

0.30 KB

 beverly_hills_chihuahua_2008_ws_r0_retail_dvd-cd.jpg

203.40 KB

 beverly_hills_chihuahua_2008_ws_r0_retail_dvd-front.jpg

1.15 MB

 bev h ch.mp4

899.25 MB
 

Announce URL: http://tracker.torrentbox.com:2710/announce

Torrent description

Chloé, une petite chienne Chihuahua de Beverly Hills toute pomponnée se perd accidentellement dans les rues de Mexico. Pas le moindre spa, pas la moindre boutique de luxe à l'horizon... Seule pour la première fois de sa vie de petite chienne gâtée, Chloé va heureusement trouver des amis inattendus pour l'aider : un berger allemand qui a grandi dans la rue, Delgado et un chiot énamouré, Papi. Tous deux lui tendront une patte secourable pour l'aider à découvrir en elle-même la force de retrouver sa maison.

Format : MPEG-4
Format profile : Base Media / Version 2
Codec ID : mp42
File size : 899 MiB
Duration : 1h 27mn
Overall bit rate : 1 433 Kbps
Encoded date : UTC 2009-08-17 10:51:33
Tagged date : UTC 2009-08-17 14:36:20
Writing application : HandBrake 0.9.3 2008112300

Video
ID : 1
Format : AVC
Format/Info : Advanced Video Codec
Format profile : [email protected]
Format settings, CABAC : Yes
Format settings, ReFrames : 3 frames
Codec ID : avc1
Codec ID/Info : Advanced Video Coding
Duration : 1h 27mn
Bit rate mode : Variable
Bit rate : 1 270 Kbps
Width : 720 pixels
Height : 428 pixels
Display aspect ratio : 2.35
Frame rate mode : Variable
Frame rate : 25.000 fps
Minimum frame rate : 12.500 fps
Maximum frame rate : 25.000 fps
Resolution : 24 bits
Colorimetry : 4:2:0
Scan type : Progressive
Bits/(Pixel*Frame) : 0.165
Stream size : 797 MiB (89%)
Writing library : x264 core 65
Audio
ID : 2
Format : AAC
Format/Info : Advanced Audio Codec
Format version : Version 4
Format profile : LC
Format settings, SBR : No
Codec ID : 40
Duration : 1h 27mn
Bit rate mode : Variable
Bit rate : 160 Kbps
Maximum bit rate : 204 Kbps
Channel(s) : 2 channels
Channel positions : L R
Sampling rate : 48.0 KHz
Resolution : 16 bits
Stream size : 100 MiB (11%)
Language : French
Encoded date : UTC 2009-08-17 10:51:33
Tagged date : UTC 2009-08-17 14:36:15

related torrents

Torrent name

health leech seeds Size
 

comments (0)

Main Menu