Adventure

Jack Hunter and The Lost Treasure of Ugarit 2008 XVID[

  • Download 5x Faster
  • Download torrent
  • Direct Download
  • Rate this torrent +  |  -
Jack Hunter and The Lost Treasure of Ugarit 2008 XVID[

Anonymous and Free Direct Download


Torrent info

Name:Jack Hunter and The Lost Treasure of Ugarit 2008 XVID[

Total Size: 691.99 MB

Magnet: Magnet Link

Seeds: 0

Leechers: 0

Stream: Watch Online @ Movie4u

Last Updated: 2012-07-13 06:01:12 (Update Now)

Torrent added: 2009-08-22 11:15:17



VPN For Torrents

Torrent Files List


Jack Hunter and The Lost Treasure of Ugarit.sfv (Size: 691.99 MB) (Files: 51)

 Jack Hunter and The Lost Treasure of Ugarit.sfv

11.36 KB

 Jack Hunter and The Lost Treasure of Ugarit.rar

14.31 MB

 Jack Hunter and The Lost Treasure of Ugarit.r47

5.33 MB

 Jack Hunter and The Lost Treasure of Ugarit.r46

14.31 MB

 Jack Hunter and The Lost Treasure of Ugarit.r45

14.31 MB

 Jack Hunter and The Lost Treasure of Ugarit.r44

14.31 MB

 Jack Hunter and The Lost Treasure of Ugarit.r43

14.31 MB

 Jack Hunter and The Lost Treasure of Ugarit.r42

14.31 MB

 Jack Hunter and The Lost Treasure of Ugarit.r41

14.31 MB

 Jack Hunter and The Lost Treasure of Ugarit.r40

14.31 MB

 Jack Hunter and The Lost Treasure of Ugarit.r39

14.31 MB

 Jack Hunter and The Lost Treasure of Ugarit.r38

14.31 MB

 Jack Hunter and The Lost Treasure of Ugarit.r37

14.31 MB

 Jack Hunter and The Lost Treasure of Ugarit.r36

14.31 MB

 Jack Hunter and The Lost Treasure of Ugarit.r35

14.31 MB

 Jack Hunter and The Lost Treasure of Ugarit.r34

14.31 MB

 Jack Hunter and The Lost Treasure of Ugarit.r33

14.31 MB

 Jack Hunter and The Lost Treasure of Ugarit.r32

14.31 MB

 Jack Hunter and The Lost Treasure of Ugarit.r31

14.31 MB

 Jack Hunter and The Lost Treasure of Ugarit.r30

14.31 MB

 Jack Hunter and The Lost Treasure of Ugarit.r29

14.31 MB

 Jack Hunter and The Lost Treasure of Ugarit.r28

14.31 MB

 Jack Hunter and The Lost Treasure of Ugarit.r27

14.31 MB

 Jack Hunter and The Lost Treasure of Ugarit.r26

14.31 MB

 Jack Hunter and The Lost Treasure of Ugarit.r25

14.31 MB

 Jack Hunter and The Lost Treasure of Ugarit.r24

14.31 MB

 Jack Hunter and The Lost Treasure of Ugarit.r23

14.31 MB

 Jack Hunter and The Lost Treasure of Ugarit.r22

14.31 MB

 Jack Hunter and The Lost Treasure of Ugarit.r21

14.31 MB

 Jack Hunter and The Lost Treasure of Ugarit.r20

14.31 MB

 Jack Hunter and The Lost Treasure of Ugarit.r19

14.31 MB

 Jack Hunter and The Lost Treasure of Ugarit.r18

14.31 MB

 Jack Hunter and The Lost Treasure of Ugarit.r17

14.31 MB

 Jack Hunter and The Lost Treasure of Ugarit.r16

14.31 MB

 Jack Hunter and The Lost Treasure of Ugarit.r15

14.31 MB

 Jack Hunter and The Lost Treasure of Ugarit.r14

14.31 MB

 Jack Hunter and The Lost Treasure of Ugarit.r13

14.31 MB

 Jack Hunter and The Lost Treasure of Ugarit.r12

14.31 MB

 Jack Hunter and The Lost Treasure of Ugarit.r11

14.31 MB

 Jack Hunter and The Lost Treasure of Ugarit.r10

14.31 MB

 Jack Hunter and The Lost Treasure of Ugarit.r09

14.31 MB

 Jack Hunter and The Lost Treasure of Ugarit.r08

14.31 MB

 Jack Hunter and The Lost Treasure of Ugarit.r07

14.31 MB

 Jack Hunter and The Lost Treasure of Ugarit.r06

14.31 MB

 Jack Hunter and The Lost Treasure of Ugarit.r05

14.31 MB

 Jack Hunter and The Lost Treasure of Ugarit.r04

14.31 MB

 Jack Hunter and The Lost Treasure of Ugarit.r03

14.31 MB

 Jack Hunter and The Lost Treasure of Ugarit.r02

14.31 MB

 Jack Hunter and The Lost Treasure of Ugarit.r01

14.31 MB

 Jack Hunter and The Lost Treasure of Ugarit.r00

14.31 MB

 Jack Hunter and The Lost Treasure of Ugarit.nfo

3.22 KB
 

Announce URL: http://tracker.ilovetorrents.com/announce.php

Torrent description

Jack Hunter and the Lost Treasure of Ugarit" (2008)

This is the first of the Jack Hunter Trilogy, followed by the Quest for Akhenaten's Tomb and then The Star of Heaven, ALL of which are available here on ILT.

General
Complete name : Jack Hunter and The Lost Treasure of Ugarit.avi
Format : AVI
Format/Info : Audio Video Interleave
File size : 700 MiB
Duration : 1h 38mn
Overall bit rate : 997 Kbps
Writing application : Nandub v1.0rc2
Writing library : Nandub build 1852/release

Video
Format : MPEG-4 Visual
Format profile : Streaming [email protected]
Format settings, BVOP : Yes
Format settings, QPel : No
Format settings, GMC : No warppoints
Format settings, Matrix : Default
Codec ID : XVID
Codec ID/Hint : XviD
Duration : 1h 38mn
Bit rate : 832 Kbps
Width : 640 pixels
Height : 352 pixels
Display aspect ratio : 16/9
Frame rate : 23.976 fps
Resolution : 24 bits
Colorimetry : 4:2:0
Scan type : Progressive
Bits/(Pixel*Frame) : 0.154
Stream size : 584 MiB (83%)
Writing library : XviD 1.1.2 (UTC 2006-11-01)

Audio
Format : MPEG Audio
Format version : Version 1
Format profile : Layer 3
Codec ID : 55
Codec ID/Hint : MP3
Duration : 1h 38mn
Bit rate mode : Variable
Bit rate : 152 Kbps
Minimum bit rate : 160 Kbps
Channel(s) : 2 channels
Sampling rate : 48.0 KHz
Resolution : 16 bits
Stream size : 107 MiB (15%)
Alignment : Aligned on interleaves
Interleave, duration : 24 ms (0.58 video frame)
Interleave, preload duration : 498 ms
Writing library : LAME3.98
Encoding settings : ABR

Exiting treasure hunt in beautiful and mysterious Turkey. High speed action and romantic love. Jack Hunter The Lost Treasure of Ugarit is an action packed miniseries that follows the adventures of a present day treasure hunter as he tries to uncover the location of The Star of Ugarit - an ancient weapon, sought after by the NASH and the Russian Mob.

Director: Terry Cunningham
Writers: Kevin Moore (Screenplay)
Michael Palmieri (writer)
Release Date: December 23 2008 (Italy)
Genre: Adventure

Cast
Ivan Sergei ... Jack Hunter
Joanne Kelly ... Nadja Ramadan
Thure Riefenstein ... Albert Littmann
Susan Ward ... Liz
Mario Naim Bassil ... Tarique
Sean Lawlor ... Professor Frederick

Country: USA
Language: English
Color: Color
Filming Locations: Turkey


Link: http://www.imdb.com/title/tt1069207/

related torrents

Torrent name

health leech seeds Size
 


comments (0)

Main Menu