Adventure

FIREHOUSE DOG [DVDRIP][ENG] KIDZCORNER

  • Download 5x Faster
  • Download torrent
  • Direct Download
  • Rate this torrent +  |  -
FIREHOUSE DOG [DVDRIP][ENG] KIDZCORNER

Anonymous and Free Direct Download 300GB+


Torrent info

Name:FIREHOUSE DOG [DVDRIP][ENG] KIDZCORNER

Total Size: 698.52 MB

Magnet: Magnet Link

Seeds: 0

Leechers: 0

Stream: Watch Online @ Movie4u

Last Updated: 0000-00-00 00:00:00 (Update Now)

Torrent added: 2009-08-22 10:54:43



VPN For Torrents

Torrent Files List


Tracked by moviesb4time.biz.txt (Size: 698.52 MB) (Files: 4)

 Tracked by moviesb4time.biz.txt

1.35 KB

 Torrent downloaded from Demonoid.com-1.txt

0.05 KB

 FHD.avi

698.48 MB

 3348317x.jpg

35.45 KB
 

Announce URL:

Torrent description

Rex, Hollywood's top-grossing canine, is known for his extreme athletic abilities and diva-like demeanor. His perks package, rivaling that of any A-list celebrity, includes Kobe beef, a poodle harem, and a diamond collar.

Rex's luck - and Hollywood high life - runs out while shooting a commercial; an aerial stunt goes awry, leading Rex's handlers to presume he's dead. But Rex is merely lost - alone, filthy and unrecognizable in an unfamiliar city. Chased by animal control, he takes refuge in grubby abandoned lofts, a far cry from his former luxurious lifestyle.

General
Complete name : C:\Users\joker\Documents\FIREHOUSE DOG-[DVDRIP][ENG]-KIDZCORNER\FHD.avi
Format : AVI
Format/Info : Audio Video Interleave
File size : 698 MiB
Duration : 1h 46mn
Overall bit rate : 916 Kbps
Writing application : FairUse Wizard - http://fairusewizard.com
Writing library : The best and REALLY easy backup tool

Video
Format : MPEG-4 Visual
Format profile : [email protected]
Format settings, BVOP : No
Format settings, QPel : No
Format settings, GMC : No warppoints
Format settings, Matrix : Default
Codec ID : XVID
Codec ID/Hint : XviD
Duration : 1h 46mn
Bit rate : 778 Kbps
Width : 688 pixels
Height : 368 pixels
Display aspect ratio : 1.870
Frame rate : 25.000 fps
Resolution : 24 bits
Colorimetry : 4:2:0
Scan type : Progressive
Bits/(Pixel*Frame) : 0.123
Stream size : 593 MiB (85%)
Writing library : XviD 1.2.0.dev47 (UTC 2006-11-01)

Audio
Format : MPEG Audio
Format version : Version 1
Format profile : Layer 3
Codec ID : 55
Codec ID/Hint : MP3
Duration : 1h 46mn
Bit rate mode : Constant
Bit rate : 128 Kbps
Minimum bit rate : 128 Kbps
Channel(s) : 2 channels
Sampling rate : 48.0 KHz
Resolution : 16 bits
Stream size : 97.6 MiB (14%)
Alignment : Aligned on interleaves
Interleave, duration : 40 ms (1.00 video frame)
Interleave, preload duration : 504 ms
Writing library : LAME3.97
Encoding settings : CBR

related torrents

Torrent name

health leech seeds Size
 


comments (0)

Main Menu