Action

Push 2009 BRRip 720p x264 [Blueman] mp4

  • Download 5x Faster
  • Download torrent
  • Direct Download
  • Rate this torrent +  |  -
Push 2009 BRRip 720p x264 [Blueman] mp4

Anonymous and Free Direct Download 300GB+


Torrent info

Name:Push 2009 BRRip 720p x264 [Blueman] mp4

Total Size: 895.25 MB

Magnet: Magnet Link

Seeds: 0

Leechers: 1

Stream: Watch Online @ Movie4u

Last Updated: 2011-07-10 16:41:04 (Update Now)

Torrent added: 2009-08-22 10:43:31



VPN For Torrents

Torrent Files List


Push.2009.BRRip.720p.x264 [Blueman].mp4 (Size: 895.25 MB) (Files: 1)

 Push.2009.BRRip.720p.x264 [Blueman].mp4

895.25 MB
 

Announce URL: http://tracker.publicbt.com/announce

Torrent description

Video
ID : 1
Format : AVC
Format/Info : Advanced Video Codec
Codec ID : avc1
Codec ID/Info : Advanced Video Coding
Duration : 1h 51mn
Bit rate mode : Variable
Bit rate : 1 088 Kbps
Maximum bit rate : 8 595 Kbps
Width : 1 280 pixels
Height : 544 pixels
Display aspect ratio : 2.35
Frame rate mode : Constant
Frame rate : 23.976 fps
Resolution : 24 bits
Colorimetry : 4:2:0
Scan type : Progressive
Bits/(Pixel*Frame) : 0.065
Stream size : 867 MiB (97%)
Writing library : x264

Audio
ID : 2
Format : AAC
Format/Info : Advanced Audio Codec
Format version : Version 4
Format profile : HE-AACv2
Codec ID : 40
Duration : 1h 51mn
Bit rate mode : Variable
Bit rate : 32.3 Kbps
Maximum bit rate : 59.6 Kbps
Channel(s) : 2 channels
Sampling rate : 48.0 KHz
Resolution : 16 bits
Stream size : 25.8 MiB (3%)

Push 2009 BRRip 720p x264 [Blueman] mp4 preview 0

Push 2009 BRRip 720p x264 [Blueman] mp4 preview 1

Push 2009 BRRip 720p x264 [Blueman] mp4 preview 2

Push 2009 BRRip 720p x264 [Blueman] mp4 preview 3

related torrents

Torrent name

health leech seeds Size
 


comments (0)

Main Menu