Action

MEN OF HONOR[2000] AC3 5 1 Dvdrip Maka6358 avi

  • Download 5x Faster
  • Download torrent
  • Direct Download
  • Rate this torrent +  |  -
MEN OF HONOR[2000] AC3 5 1 Dvdrip Maka6358 avi

Free and Direct Download with Usenet 300GB+ free


Torrent info

Name:MEN OF HONOR[2000] AC3 5 1 Dvdrip Maka6358 avi

Total Size: 1.37 GB

Magnet: Magnet Link

Seeds: 0

Leechers: 2

Stream: Watch Online @ Movie4u

Last Updated: 2015-11-07 17:09:44 (Update Now)

Torrent added: 2009-08-22 10:13:20




Torrent Files List


MEN_OF_HONOR[2000]-AC3-5.1-Dvdrip-Maka6358.avi (Size: 1.37 GB) (Files: 4)

 MEN_OF_HONOR[2000]-AC3-5.1-Dvdrip-Maka6358.avi

1.37 GB

 men of honor.jpg

5.85 KB

 Men of Honor Info.txt

2.59 KB

 [www.DarksideRG.com].jpg

110.20 KB
 

tracker

leech seeds
 

Torrent description

The story ultimately revolves around two "men of honor"; their relationship, their individual and joint failures and triumphs. Carl Brashear is determined to be the first African American Navy Diver in a time where racism is strife. Leslie Sunday is his embittered trainer, determined to see him fail. Fate, challenges and circumstances eventually draw these two men together in a tale of turbulance and ultimately triumph.

http://www.imdb.com/title/tt0203019/

General
Complete name : MEN_OF_HONOR[2000]-AC3-5.1-Dvdrip-Maka6358.avi
Format : AVI
Format/Info : Audio Video Interleave
File size : 1.37 GiB
Duration : 2h 3mn
Overall bit rate : 1 585 Kbps
Writing application : VirtualDubMod 1.5.4.1 (build 2178/release)
Writing library : VirtualDubMod build 2178/release

Video
Format : MPEG-4 Visual
Format profile : Streaming [email protected]
Format settings, BVOP : Yes
Format settings, QPel : No
Format settings, GMC : No warppoints
Format settings, Matrix : Custom
Codec ID : XVID
Codec ID/Hint : XviD
Duration : 2h 3mn
Bit rate : 1 194 Kbps
Width : 672 pixels
Height : 288 pixels
Display aspect ratio : 2.35
Frame rate : 25.000 fps
Resolution : 24 bits
Colorimetry : 4:2:0
Scan type : Progressive
Bits/(Pixel*Frame) : 0.247
Stream size : 1.03 GiB (75%)
Writing library : XviD 1.2.0.dev47 (UTC 2006-11-01)

Audio
Format : AC-3
Format/Info : Audio Coding 3
Codec ID : 2000
Duration : 2h 3mn
Bit rate mode : Constant
Bit rate : 384 Kbps
Channel(s) : 6 channels
Channel positions : Front: L C R, Surround: L R, LFE
Sampling rate : 48.0 KHz
Video delay : 17ms
Stream size : 339 MiB (24%)
Alignment : Split accross interleaves
Interleave, duration : 96 ms (2.40 video frames)
Interleave, preload duration : 96 ms
Language : English

Info Hash : 2595E6FC6EEB8244BAA02EAD9FADA496EF844535

related torrents

Torrent name

health leech seeds Size
 

comments (0)

Main Menu