Action

Lock Stock And Two Smoking Barrels 1998 HDTV XviD AC3 FLAWL3SS [ceasers palace info]

  • Download 5x Faster
  • Download torrent
  • Direct Download
  • Rate this torrent +  |  -

Torrent info

Name:Lock Stock And Two Smoking Barrels 1998 HDTV XviD AC3 FLAWL3SS [ceasers palace info]

Total Size: 1.71 GB

Magnet: Magnet Link

Seeds: 0

Leechers: 0

Stream: Watch Online @ Movie4u

Last Updated: 2015-05-21 17:33:24 (Update Now)

Torrent added: 2009-08-22 10:06:25



VPN For Torrents

Torrent Files List


Lock.Stock.And.Two.Smoking.Barrels.1998.HDTV.XviD.AC3-FLAWL3SS.avi (Size: 1.71 GB) (Files: 1)

 Lock.Stock.And.Two.Smoking.Barrels.1998.HDTV.XviD.AC3-FLAWL3SS.avi

1.71 GB
 

tracker

leech seeds
 

Torrent description

Format : AVI
Format/Info : Audio Video Interleave
File size : 1.71 GiB
Duration : 1h 42mn
Overall bit rate : 2 378 Kbps
Writing application : VirtualDubMod 1.5.10.2 (build 2540/release)
Writing library : VirtualDubMod build 2540/release

Video
ID : 0
Format : MPEG-4 Visual
Format profile : Streaming [email protected]
Format settings, BVOP : Yes
Format settings, QPel : No
Format settings, GMC : No warppoints
Format settings, Matrix : Custom
Codec ID : XVID
Codec ID/Hint : XviD
Duration : 1h 42mn
Bit rate : 1 984 Kbps
Width : 720 pixels
Height : 400 pixels
Display aspect ratio : 16/9
Frame rate : 25.000 fps
Resolution : 24 bits
Colorimetry : 4:2:0
Scan type : Progressive
Bits/(Pixel*Frame) : 0.276
Stream size : 1.42 GiB (83%)
Writing library : XviD 1.2.0.dev49

Audio
ID : 1
Format : AC-3
Format/Info : Audio Coding 3
Codec ID : 2000
Duration : 1h 42mn
Bit rate mode : Constant
Bit rate : 384 Kbps
Channel(s) : 6 channels
Channel positions : Front: L C R, Surround: L R, LFE
Sampling rate : 48.0 KHz
Stream size : 282 MiB (16%)
Alignment : Split accross interleaves
Interleave, duration : 40 ms (1.00 video frame)
Interleave, preload duration : 500 ms

related torrents

Torrent name

health leech seeds Size
 


comments (0)

Main Menu