Action

Der Mann der niemals lebte Deutsch 2008 Cam Mic Xvid [mnvv2 info]

  • Download 5x Faster
  • Download torrent
  • Direct Download
  • Rate this torrent +  |  -
Der Mann der niemals lebte Deutsch 2008 Cam Mic Xvid [mnvv2 info]

Free and Direct Download with Usenet.nl 300GB+ free


Torrent info

Name:Der Mann der niemals lebte Deutsch 2008 Cam Mic Xvid [mnvv2 info]

Total Size: 697.79 MB

Magnet: Magnet Link

Seeds: 0

Leechers: 0

Stream: Watch Online @ Movie4u

Last Updated: 2016-06-08 16:18:24 (Update Now)

Torrent added: 2009-08-22 09:24:57





Torrent Files List


t-51321-1.jpg (Size: 697.79 MB) (Files: 4)

 t-51321-1.jpg

8.79 KB

 f200x155.jpg

10.49 KB

 info.txt

2.48 KB

 Der Mann der niemals lebte.avi

697.77 MB
 

tracker

leech seeds
 

Torrent description

Der.Mann.der.niemals.lebte.Deutsch.2008.Cam.Mic.Xvid
Format..: Avi
Codec: Xvid
Formatinfos: 25,0000fps
Sprachen: Deutsch
FSK..: 18jahre
Genre: Horror/Science Fiction
Groesse.: 1,72Gb
Movie Info.:

CIA-Spion Roger Ferris (Leonardo DiCaprio) hat schon Situationen überlebt, die seinen Kollegen das Leben gekostet hätten. Sein derzeitiger Auftrag lautet, sich in ein brandgefährliches Terrornetzwerk einzuschleusen, das die Welt mit globalen Bombenattentaten überzieht. Dafür muss er seinen gerissenen Vorgesetzten Ed Hoffman (Russell Crowe) sowie einen zwielichtigen jordanischen Kontaktmann überzeugen. Freund und Feind verschwimmen zunehmend.


Format : AVI
Format/Info : Audio Video Interleave
Dateigre : 698 MiB
Duration : 1h 58min
Gesamte Bitrate : 823 Kbps
Verwendetes Programm : VirtualDubMod 1.5.10.2 (build 2540/release)
verwendete Encoder-Bibliothek : VirtualDubMod build 2540/release

Video
Format : MPEG-4 Visual
Format profile : Streaming [email protected]
Format settings, BVOP : Ja
Format settings, QPel : Nein
Format settings, GMC : No warpoints
Format settings, Matrix : Default
Codec ID : XVID
Codec ID/Hint : XviD
Duration : 1h 58min
Bitrate : 685 Kbps
Breite : 608 Pixel
Höhe : 288 Pixel
Bildseitenverhältnis : 2.2
Bildwiederholungsrate : 23.976 FPS
Auflösung : 8 bits
Colorimetry : 4:2:0
Scan type : Progressive
Bits/(Pixel*Frame) : 0.163
Stream size : 581 MiB
verwendete Encoder-Bibliothek : XviD 1.1.2 (UTC 2006-11-01)

Audio
Format : MPEG Audio
Format version : Version 1
Format profile : Layer 3
Codec ID : 55
Codec ID/Hint : MP3
Duration : 1h 58min
Bitraten-Modus : Variable
Bitrate : 125 Kbps
Kanäle : 2 Kanäle
Samplingrate : 48.0 KHz
Auflösung : 16 bits
Stream size : 106 MiB

related torrents

Torrent name

health leech seeds Size
 

comments (0)

Main Menu