Action

Dead Heist (USA 2007) Deutsch DVDrip Xvid [mnvv2 info]

  • Download 5x Faster
  • Download torrent
  • Direct Download
  • Rate this torrent +  |  -

Torrent info

Name:Dead Heist (USA 2007) Deutsch DVDrip Xvid [mnvv2 info]

Total Size: 700.12 MB

Magnet: Magnet Link

Seeds: 0

Leechers: 0

Stream: Watch Full Movie @ Movie4u

Last Updated: 2010-11-30 16:47:11 (Update Now)

Torrent added: 2009-08-22 09:11:05



VPN For Torrents

Torrent Files List


cover.jpg (Size: 700.12 MB) (Files: 3)

 cover.jpg

11.70 KB

 info.txt

1.69 KB

 deadheist.avi

700.11 MB
 

Announce URL: http://announce.mnvv2.info/announce.php

Torrent description

Dead.Heist.(USA.2007).Deutsch.DVDrip.Xvid
Dead Heist (USA 2007)
Store_Date_DE_____: 17.04.2009
Production_Year___: 2007
Runtime___________: 73 minutes
Genre_____________: Action Horror
Video-Source______: PAL-DVD
Format____________: XviD
Resolution________: 640 x 352
Video_Bitrate_____: avg. 1210 kbps
Audio_Bitrate_____: 48000Hz 130 kb/s
Subs______________: NO
Size______________: 37 x 20mb
Ski und seine Kumpels wollen das groe Ding machen: Eine Bank in einer abgelegenen Klein-
stadt soll um eine groe Menge Geld erleichtert werden. Vom Gangsterboss Hustle bekommen
sie fr ihr Unternehmen nicht nur Waffen, sondern mit dem Ex-Soldaten Jackson auch einen
Aufpasser an die Seite gestellt, der sicherstellen soll, dass die Jungs nicht ohne eine
gewisse Umsatzbeteiligung fr ihn das Weite suchen. Doch der berfall geht mächtig schief
und die Bank wird von der Polizei umstellt. Doch dies soll nicht das gröte Problem fr die
Bankräuber sein: Wie aus dem Nichts tauchen nach Einbruch der Dunkelheit plötzlich Horden
von aggres- siven Infizierten auf und töten die Polizisten sowie jeden weiteren Passanten
auerhalb der Bank. Fr die Kriminellen und ihre Geiseln gibt es nur eine Option:
Zusammenhalten und bis zum Morgengrauen um ihr Leben kämpfen
Format : AVI
Format/Info : Audio Video Interleave
Dateigröe : 700 MiB
Duration : 1h 12min
Gesamte Bitrate : 1353 Kbps
Verwendetes Programm : VirtualDubMod 1.5.10.2 (build 2540/release)
verwendete Encoder-Bibliothek : VirtualDubMod build 2540/release
Video
Format : MPEG-4 Visual
Format profile : Streaming [email protected]
Format settings, BVOP : Ja
Format settings, QPel : Nein
Format settings, GMC : No warpoints
Format settings, Matrix : Default
Codec ID : XVID
Codec ID/Hint : XviD
Duration : 1h 12min
Bitrate : 1210 Kbps
Breite : 640 Pixel
Höhe : 352 Pixel
Bildseitenverhältnis : 16/9
Bildwiederholungsrate : 25.000 FPS
Auflösung : 8 bits
Colorimetry : 4:2:0
Scan type : Progressive
Bits/(Pixel*Frame) : 0.215
Stream size : 626 MiB
verwendete Encoder-Bibliothek : XviD 1.2.0.dev47 (UTC 2006-11-01)
Audio
Format : MPEG Audio
Format version : Version 1
Format profile : Layer 3
Codec ID : 55
Codec ID/Hint : MP3
Duration : 1h 12min
Bitraten-Modus : Variable
Bitrate : 130 Kbps
Minimum bit rate : 136 Kbps
Kanäle : 2 Kanäle
Samplingrate : 48.0 KHz
Auflösung : 16 bits
Stream size : 67.1 MiB
verwendete Encoder-Bibliothek : LAME3.97b
Kodierungseinstellungen : ABR

related torrents

Torrent name

health leech seeds Size
 


comments (0)

Main Menu

 

script data-cfasync="false" src="//d2ghscazvn398x.cloudfront.net/?cshgd=690275">