Action

Bruce Almighty 2003 1080P BluRay x264 RoCKRioT

  • Download 5x Faster
  • Download torrent
  • Direct Download
  • Rate this torrent +  |  -
Bruce Almighty 2003 1080P BluRay x264 RoCKRioT

Anonymous and Free Direct Download


Torrent info

Name:Bruce Almighty 2003 1080P BluRay x264 RoCKRioT

Total Size: 8.08 GB

Magnet: Magnet Link

Seeds: 0

Leechers: 53

Stream: Watch Online @ Movie4u

Last Updated: 2015-07-07 19:04:09 (Update Now)

Torrent added: 2009-08-22 08:49:11



VPN For Torrents

Torrent Files List


Bruce.Almighty.2003.1080P.BluRay.x264-RoCKRioT.nfo (Size: 8.08 GB) (Files: 2)

 Bruce.Almighty.2003.1080P.BluRay.x264-RoCKRioT.nfo

4.35 KB

 Bruce.Almighty.2003.1080P.BluRay.x264-RoCKRioT.mkv

8.08 GB
 

tracker

leech seeds
 

Torrent description

DRip:
- English Audio AC3

=====

General
Complete name : Bruce.Almighty.2003.1080P.BluRay.x264-RoCKRioT.mkv
Format : Matroska
File size : 8.08 GiB
Duration : 1h 41mn
Overall bit rate : 11.5 Mbps
Encoded date : UTC 2008-09-20 16:38:24
Writing application : mkvmerge v2.2.0 ('Freak U') built on Sep 8 2008

16:20:24
Writing library : libebml v0.7.7 + libmatroska v0.8.1

Video
ID : 1
Format : AVC
Format/Info : Advanced Video Codec
Format profile : [email protected]
Format settings, CABAC : Yes
Format settings, ReFrames : 2 frames
Muxing mode : Container [email protected]
Codec ID : V_MPEG4/ISO/AVC
Duration : 1h 40mn
Bit rate : 10.6 Mbps
Nominal bit rate : 11.0 Mbps
Width : 1 920 pixels
Height : 1 080 pixels
Display aspect ratio : 16/9
Frame rate : 23.976 fps
Resolution : 24 bits
Colorimetry : 4:2:0
Scan type : Progressive
Bits/(Pixel*Frame) : 0.213
Stream size : 7.46 GiB (92%)
Writing library : x264 core 61
Encoding settings : cabac=1 / ref=1 / deblock=1:0:0 /

analyse=0x3:0x133 / me=hex / subme=5 / brdo=0 / mixed_ref=0 / me_range=16 /

chroma_me=1 / trellis=1 / 8x8dct=1 / cqm=0 / deadzone=21,11 / chroma_qp_offset=0 /

threads=3 / nr=0 / decimate=1 / mbaff=0 / bframes=3 / b_pyramid=0 / b_adapt=1 /

b_bias=0 / direct=3 / wpredb=1 / bime=1 / keyint=250 / keyint_min=25 / scenecut=40

(pre) / rc=abr / bitrate=11018 / ratetol=1.0 / qcomp=1.00 / qpmin=10 / qpmax=51 /

qpstep=4 / ip_ratio=1.40 / pb_ratio=1.30 / aq=2:1.00

Audio
ID : 2
Format : AC-3
Format/Info : Audio Coding 3
Codec ID : A_AC3
Duration : 1h 41mn
Bit rate mode : Constant
Bit rate : 640 Kbps
Channel(s) : 6 channels
Channel positions : Front: L C R, Surround: L R, LFE
Sampling rate : 48.0 KHz
Stream size : 462 MiB (6%)

related torrents

Torrent name

health leech seeds Size
 


comments (0)

Main Menu